  0
SECTION
  2
HEADER
  9
$ACADVER
  1
AC1015
  9
$ACADMAINTVER
 70
     6
  9
$DWGCODEPAGE
  3
ANSI_1252
  9
$INSBASE
 10
0.0
 20
0.0
 30
0.0
  9
$EXTMIN
 10
-210.0000000000001
 20
0.0
 30
0.0
  9
$EXTMAX
 10
0.0
 20
297.0000000000001
 30
0.0
  9
$LIMMIN
 10
0.0
 20
0.0
  9
$LIMMAX
 10
12.0
 20
9.0
  9
$ORTHOMODE
 70
     0
  9
$REGENMODE
 70
     1
  9
$FILLMODE
 70
     1
  9
$QTEXTMODE
 70
     0
  9
$MIRRTEXT
 70
     1
  9
$LTSCALE
 40
1.0
  9
$ATTMODE
 70
     1
  9
$TEXTSIZE
 40
0.2
  9
$TRACEWID
 40
0.05
  9
$TEXTSTYLE
  7
Standard
  9
$CLAYER
  8
0
  9
$CELTYPE
  6
ByLayer
  9
$CECOLOR
 62
   256
  9
$CELTSCALE
 40
1.0
  9
$DISPSILH
 70
     0
  9
$DIMSCALE
 40
1.0
  9
$DIMASZ
 40
0.18
  9
$DIMEXO
 40
0.0625
  9
$DIMDLI
 40
0.38
  9
$DIMRND
 40
0.0
  9
$DIMDLE
 40
0.0
  9
$DIMEXE
 40
0.18
  9
$DIMTP
 40
0.0
  9
$DIMTM
 40
0.0
  9
$DIMTXT
 40
0.18
  9
$DIMCEN
 40
0.09
  9
$DIMTSZ
 40
0.0
  9
$DIMTOL
 70
     0
  9
$DIMLIM
 70
     0
  9
$DIMTIH
 70
     1
  9
$DIMTOH
 70
     1
  9
$DIMSE1
 70
     0
  9
$DIMSE2
 70
     0
  9
$DIMTAD
 70
     0
  9
$DIMZIN
 70
     0
  9
$DIMBLK
  1

  9
$DIMASO
 70
     1
  9
$DIMSHO
 70
     1
  9
$DIMPOST
  1

  9
$DIMAPOST
  1

  9
$DIMALT
 70
     0
  9
$DIMALTD
 70
     2
  9
$DIMALTF
 40
25.4
  9
$DIMLFAC
 40
1.0
  9
$DIMTOFL
 70
     0
  9
$DIMTVP
 40
0.0
  9
$DIMTIX
 70
     0
  9
$DIMSOXD
 70
     0
  9
$DIMSAH
 70
     0
  9
$DIMBLK1
  1

  9
$DIMBLK2
  1

  9
$DIMSTYLE
  2
Standard
  9
$DIMCLRD
 70
     0
  9
$DIMCLRE
 70
     0
  9
$DIMCLRT
 70
     0
  9
$DIMTFAC
 40
1.0
  9
$DIMGAP
 40
0.09
  9
$DIMJUST
 70
     0
  9
$DIMSD1
 70
     0
  9
$DIMSD2
 70
     0
  9
$DIMTOLJ
 70
     1
  9
$DIMTZIN
 70
     0
  9
$DIMALTZ
 70
     0
  9
$DIMALTTZ
 70
     0
  9
$DIMUPT
 70
     0
  9
$DIMDEC
 70
     4
  9
$DIMTDEC
 70
     4
  9
$DIMALTU
 70
     2
  9
$DIMALTTD
 70
     2
  9
$DIMTXSTY
  7
Standard
  9
$DIMAUNIT
 70
     0
  9
$DIMADEC
 70
     0
  9
$DIMALTRND
 40
0.0
  9
$DIMAZIN
 70
     0
  9
$DIMDSEP
 70
    46
  9
$DIMATFIT
 70
     3
  9
$DIMFRAC
 70
     0
  9
$DIMLDRBLK
  1

  9
$DIMLUNIT
 70
     2
  9
$DIMLWD
 70
    -2
  9
$DIMLWE
 70
    -2
  9
$DIMTMOVE
 70
     0
  9
$LUNITS
 70
     2
  9
$LUPREC
 70
     4
  9
$SKETCHINC
 40
0.1
  9
$FILLETRAD
 40
0.5
  9
$AUNITS
 70
     0
  9
$AUPREC
 70
     0
  9
$MENU
  1
.
  9
$ELEVATION
 40
0.0
  9
$PELEVATION
 40
0.0
  9
$THICKNESS
 40
0.0
  9
$LIMCHECK
 70
     0
  9
$CHAMFERA
 40
0.5
  9
$CHAMFERB
 40
0.5
  9
$CHAMFERC
 40
1.0
  9
$CHAMFERD
 40
0.0
  9
$SKPOLY
 70
     0
  9
$TDCREATE
 40
2456997.490992824
  9
$TDUCREATE
 40
2456997.449326158
  9
$TDUPDATE
 40
2456997.490993183
  9
$TDUUPDATE
 40
2456997.449326516
  9
$TDINDWG
 40
0.0000000116
  9
$TDUSRTIMER
 40
0.0000000116
  9
$USRTIMER
 70
     1
  9
$ANGBASE
 50
0.0
  9
$ANGDIR
 70
     0
  9
$PDMODE
 70
     0
  9
$PDSIZE
 40
0.0
  9
$PLINEWID
 40
0.0
  9
$SPLFRAME
 70
     0
  9
$SPLINETYPE
 70
     6
  9
$SPLINESEGS
 70
     8
  9
$HANDSEED
  5
469
  9
$SURFTAB1
 70
     6
  9
$SURFTAB2
 70
     6
  9
$SURFTYPE
 70
     6
  9
$SURFU
 70
     6
  9
$SURFV
 70
     6
  9
$UCSBASE
  2

  9
$UCSNAME
  2

  9
$UCSORG
 10
0.0
 20
0.0
 30
0.0
  9
$UCSXDIR
 10
1.0
 20
0.0
 30
0.0
  9
$UCSYDIR
 10
0.0
 20
1.0
 30
0.0
  9
$UCSORTHOREF
  2

  9
$UCSORTHOVIEW
 70
     0
  9
$UCSORGTOP
 10
0.0
 20
0.0
 30
0.0
  9
$UCSORGBOTTOM
 10
0.0
 20
0.0
 30
0.0
  9
$UCSORGLEFT
 10
0.0
 20
0.0
 30
0.0
  9
$UCSORGRIGHT
 10
0.0
 20
0.0
 30
0.0
  9
$UCSORGFRONT
 10
0.0
 20
0.0
 30
0.0
  9
$UCSORGBACK
 10
0.0
 20
0.0
 30
0.0
  9
$PUCSBASE
  2

  9
$PUCSNAME
  2

  9
$PUCSORG
 10
0.0
 20
0.0
 30
0.0
  9
$PUCSXDIR
 10
1.0
 20
0.0
 30
0.0
  9
$PUCSYDIR
 10
0.0
 20
1.0
 30
0.0
  9
$PUCSORTHOREF
  2

  9
$PUCSORTHOVIEW
 70
     0
  9
$PUCSORGTOP
 10
0.0
 20
0.0
 30
0.0
  9
$PUCSORGBOTTOM
 10
0.0
 20
0.0
 30
0.0
  9
$PUCSORGLEFT
 10
0.0
 20
0.0
 30
0.0
  9
$PUCSORGRIGHT
 10
0.0
 20
0.0
 30
0.0
  9
$PUCSORGFRONT
 10
0.0
 20
0.0
 30
0.0
  9
$PUCSORGBACK
 10
0.0
 20
0.0
 30
0.0
  9
$USERI1
 70
     0
  9
$USERI2
 70
     0
  9
$USERI3
 70
     0
  9
$USERI4
 70
     0
  9
$USERI5
 70
     0
  9
$USERR1
 40
18.1
  9
$USERR2
 40
0.0
  9
$USERR3
 40
0.0
  9
$USERR4
 40
0.0
  9
$USERR5
 40
0.0
  9
$WORLDVIEW
 70
     1
  9
$SHADEDGE
 70
     3
  9
$SHADEDIF
 70
    70
  9
$TILEMODE
 70
     1
  9
$MAXACTVP
 70
    64
  9
$PINSBASE
 10
0.0
 20
0.0
 30
0.0
  9
$PLIMCHECK
 70
     0
  9
$PEXTMIN
 10
1.00000000000000E+20
 20
1.00000000000000E+20
 30
1.00000000000000E+20
  9
$PEXTMAX
 10
-1.00000000000000E+20
 20
-1.00000000000000E+20
 30
-1.00000000000000E+20
  9
$PLIMMIN
 10
0.0
 20
0.0
  9
$PLIMMAX
 10
12.0
 20
9.0
  9
$UNITMODE
 70
     0
  9
$VISRETAIN
 70
     1
  9
$PLINEGEN
 70
     0
  9
$PSLTSCALE
 70
     1
  9
$TREEDEPTH
 70
  3020
  9
$CMLSTYLE
  2
Standard
  9
$CMLJUST
 70
     0
  9
$CMLSCALE
 40
1.0
  9
$PROXYGRAPHICS
 70
     1
  9
$MEASUREMENT
 70
     1
  9
$CELWEIGHT
370
    -1
  9
$ENDCAPS
280
     0
  9
$JOINSTYLE
280
     0
  9
$LWDISPLAY
290
     0
  9
$INSUNITS
 70
     4
  9
$HYPERLINKBASE
  1

  9
$STYLESHEET
  1

  9
$XEDIT
290
     1
  9
$CEPSNTYPE
380
     0
  9
$PSTYLEMODE
290
     1
  9
$FINGERPRINTGUID
  2
{7EB9269A-D111-4C89-858E-0DA86FCA2BE6}
  9
$VERSIONGUID
  2
{FAEB1C32-E019-11D5-929B-00C0DF256EC4}
  9
$EXTNAMES
290
     1
  9
$PSVPSCALE
 40
0.0
  9
$OLESTARTUP
290
     0
  0
ENDSEC
  0
SECTION
  2
CLASSES
  0
CLASS
  1
ACDBDICTIONARYWDFLT
  2
AcDbDictionaryWithDefault
  3
ObjectDBX Classes
 90
        0
280
     0
281
     0
  0
CLASS
  1
VISUALSTYLE
  2
AcDbVisualStyle
  3
ObjectDBX Classes
 90
     4095
280
     0
281
     0
  0
CLASS
  1
MATERIAL
  2
AcDbMaterial
  3
ObjectDBX Classes
 90
     1153
280
     0
281
     0
  0
CLASS
  1
DICTIONARYVAR
  2
AcDbDictionaryVar
  3
ObjectDBX Classes
 90
        0
280
     0
281
     0
  0
CLASS
  1
ACDBPLACEHOLDER
  2
AcDbPlaceHolder
  3
ObjectDBX Classes
 90
        0
280
     0
281
     0
  0
CLASS
  1
LAYOUT
  2
AcDbLayout
  3
ObjectDBX Classes
 90
        0
280
     0
281
     0
  0
ENDSEC
  0
SECTION
  2
TABLES
  0
TABLE
  2
VPORT
  5
8
330
0
100
AcDbSymbolTable
 70
     1
  0
VPORT
  5
29
330
8
100
AcDbSymbolTableRecord
100
AcDbViewportTableRecord
  2
*Active
 70
     0
 10
0.0
 20
0.0
 11
1.0
 21
1.0
 12
-105.0000000000001
 22
148.5000000000001
 13
0.0
 23
0.0
 14
0.5
 24
0.5
 15
0.5
 25
0.5
 16
0.0
 26
0.0
 36
1.0
 17
0.0
 27
0.0
 37
0.0
 40
326.7000000000002
 41
1.60267857142857
 42
50.0
 43
0.0
 44
0.0
 50
0.0
 51
0.0
 71
     0
 72
   100
 73
     1
 74
     3
 75
     0
 76
     0
 77
     0
 78
     0
281
     0
 65
     1
110
0.0
120
0.0
130
0.0
111
1.0
121
0.0
131
0.0
112
0.0
122
1.0
132
0.0
 79
     0
146
0.0
  0
ENDTAB
  0
TABLE
  2
LTYPE
  5
5
330
0
100
AcDbSymbolTable
 70
     8
  0
LTYPE
  5
14
330
5
100
AcDbSymbolTableRecord
100
AcDbLinetypeTableRecord
  2
ByBlock
 70
     0
  3

 72
    65
 73
     0
 40
0.0
  0
LTYPE
  5
15
330
5
100
AcDbSymbolTableRecord
100
AcDbLinetypeTableRecord
  2
ByLayer
 70
     0
  3

 72
    65
 73
     0
 40
0.0
  0
LTYPE
  5
16
330
5
100
AcDbSymbolTableRecord
100
AcDbLinetypeTableRecord
  2
Continuous
 70
     0
  3
Solid line
 72
    65
 73
     0
 40
0.0
  0
LTYPE
  5
3F
330
5
100
AcDbSymbolTableRecord
100
AcDbLinetypeTableRecord
  2
DASHED
 70
     0
  3
Dashed
 72
    65
 73
     2
 40
15.0
 49
7.0
 74
     0
 49
-8.0
 74
     0
  0
LTYPE
  5
40
330
5
100
AcDbSymbolTableRecord
100
AcDbLinetypeTableRecord
  2
DOTTED
 70
     0
  3
Dotted
 72
    65
 73
     2
 40
1.0
 49
0.0
 74
     0
 49
-1.0
 74
     0
  0
LTYPE
  5
41
330
5
100
AcDbSymbolTableRecord
100
AcDbLinetypeTableRecord
  2
DOT_CENTER
 70
     0
  3
Dot_Center
 72
    65
 73
     4
 40
14.0
 49
12.0
 74
     0
 49
-1.0
 74
     0
 49
0.0
 74
     0
 49
-1.0
 74
     0
  0
LTYPE
  5
42
330
5
100
AcDbSymbolTableRecord
100
AcDbLinetypeTableRecord
  2
LONG_DASHED
 70
     0
  3
Long_Dashed
 72
    65
 73
     2
 40
15.0
 49
10.0
 74
     0
 49
-5.0
 74
     0
  0
LTYPE
  5
43
330
5
100
AcDbSymbolTableRecord
100
AcDbLinetypeTableRecord
  2
DASH_CENTER
 70
     0
  3
Dash_Center
 72
    65
 73
     4
 40
14.0
 49
11.0
 74
     0
 49
-1.0
 74
     0
 49
1.0
 74
     0
 49
-1.0
 74
     0
  0
LTYPE
  5
44
330
5
100
AcDbSymbolTableRecord
100
AcDbLinetypeTableRecord
  2
PHANTOM
 70
     0
  3
Phantom
 72
    65
 73
     6
 40
13.0
 49
10.0
 74
     0
 49
-1.0
 74
     0
 49
0.0
 74
     0
 49
-1.0
 74
     0
 49
0.0
 74
     0
 49
-1.0
 74
     0
  0
LTYPE
  5
45
330
5
100
AcDbSymbolTableRecord
100
AcDbLinetypeTableRecord
  2
CENTER_DASH_DASH
 70
     0
  3
Center_Dash_Dash
 72
    65
 73
     6
 40
14.0
 49
9.0
 74
     0
 49
-1.0
 74
     0
 49
1.0
 74
     0
 49
-1.0
 74
     0
 49
1.0
 74
     0
 49
-1.0
 74
     0
  0
ENDTAB
  0
TABLE
  2
LAYER
  5
2
330
0
100
AcDbSymbolTable
 70
     3
  0
LAYER
  5
10
330
2
100
AcDbSymbolTableRecord
100
AcDbLayerTableRecord
  2
0
 70
     0
 62
     7
  6
Continuous
370
    -3
390
F
  0
LAYER
  5
46
330
2
100
AcDbSymbolTableRecord
100
AcDbLayerTableRecord
  2
1
 70
     0
 62
     7
  6
Continuous
370
    -3
390
F
  0
LAYER
  5
47
330
2
100
AcDbSymbolTableRecord
100
AcDbLayerTableRecord
  2
2
 70
     0
 62
     7
  6
Continuous
370
    -3
390
F
  0
ENDTAB
  0
TABLE
  2
STYLE
  5
3
330
0
100
AcDbSymbolTable
 70
     4
  0
STYLE
  5
11
330
3
100
AcDbSymbolTableRecord
100
AcDbTextStyleTableRecord
  2
Standard
 70
     0
 40
0.0
 41
1.0
 50
0.0
 71
     0
 42
0.2
  3
txt
  4

  0
STYLE
  5
401
330
3
100
AcDbSymbolTableRecord
100
AcDbTextStyleTableRecord
  2
CONVERTER_11
 70
     0
 40
0.0
 41
0.95
 50
0.0
 71
     0
 42
0.2
  3
simplex.shx
  4

  0
STYLE
  5
403
330
3
100
AcDbSymbolTableRecord
100
AcDbTextStyleTableRecord
  2
CONVERTER_12
 70
     0
 40
0.0
 41
0.855
 50
0.0
 71
     0
 42
0.2
  3
simplex.shx
  4

  0
STYLE
  5
40E
330
3
100
AcDbSymbolTableRecord
100
AcDbTextStyleTableRecord
  2
CONVERTER_13
 70
     0
 40
0.0
 41
1.2
 50
0.0
 71
     0
 42
0.2
  3
ARIAL.TTF
  4

  0
ENDTAB
  0
TABLE
  2
VIEW
  5
6
330
0
100
AcDbSymbolTable
 70
     0
  0
ENDTAB
  0
TABLE
  2
UCS
  5
7
330
0
100
AcDbSymbolTable
 70
     0
  0
ENDTAB
  0
TABLE
  2
APPID
  5
9
330
0
100
AcDbSymbolTable
 70
     1
  0
APPID
  5
12
330
9
100
AcDbSymbolTableRecord
100
AcDbRegAppTableRecord
  2
ACAD
 70
     0
  0
ENDTAB
  0
TABLE
  2
DIMSTYLE
  5
A
330
0
100
AcDbSymbolTable
 70
     4
100
AcDbDimStyleTable
  0
DIMSTYLE
105
27
330
A
100
AcDbSymbolTableRecord
100
AcDbDimStyleTableRecord
  2
Standard
 70
     0
178
     0
340
11
  0
DIMSTYLE
105
420
102
{ACAD_REACTORS
330
421
102
}
330
A
100
AcDbSymbolTableRecord
100
AcDbDimStyleTableRecord
  2
ME10_DIM_10
 70
     0
 41
3.0
 42
0.5
 44
1.0
 73
     0
 74
     0
 77
     1
 78
     8
140
3.0
147
2.0
172
     1
173
     1
174
     1
175
     1
176
     2
177
     2
271
     2
178
     4
271
     2
340
401
  0
DIMSTYLE
105
42B
102
{ACAD_REACTORS
330
42C
102
}
330
A
100
AcDbSymbolTableRecord
100
AcDbDimStyleTableRecord
  2
ME10_DIM_11
 70
     0
 41
3.0
 42
0.5
 44
1.0
 73
     0
 74
     0
 77
     1
 78
     8
140
3.0
147
2.0
172
     1
173
     1
174
     1
175
     1
176
     2
177
     2
271
     2
178
     4
271
     2
340
401
  0
DIMSTYLE
105
436
102
{ACAD_REACTORS
330
437
102
}
330
A
100
AcDbSymbolTableRecord
100
AcDbDimStyleTableRecord
  2
ME10_DIM_12
 70
     0
 41
3.0
 42
0.5
 44
1.0
 73
     0
 74
     0
 77
     1
 78
     8
140
3.0
147
2.0
172
     1
173
     1
174
     1
175
     1
176
     2
177
     2
271
     2
178
     4
271
     2
340
401
  0
ENDTAB
  0
TABLE
  2
BLOCK_RECORD
  5
1
330
0
100
AcDbSymbolTable
 70
     4
  0
BLOCK_RECORD
  5
1F
330
1
100
AcDbSymbolTableRecord
100
AcDbBlockTableRecord
  2
*Model_Space
340
22
  0
BLOCK_RECORD
  5
1B
330
1
100
AcDbSymbolTableRecord
100
AcDbBlockTableRecord
  2
*Paper_Space
340
1E
  0
BLOCK_RECORD
  5
23
330
1
100
AcDbSymbolTableRecord
100
AcDbBlockTableRecord
  2
*Paper_Space0
340
26
  0
BLOCK_RECORD
  5
417
330
1
100
AcDbSymbolTableRecord
100
AcDbBlockTableRecord
  2
*D1
340
0
  0
BLOCK_RECORD
  5
422
330
1
100
AcDbSymbolTableRecord
100
AcDbBlockTableRecord
  2
*D2
340
0
  0
BLOCK_RECORD
  5
42D
330
1
100
AcDbSymbolTableRecord
100
AcDbBlockTableRecord
  2
*D3
340
0
  0
ENDTAB
  0
ENDSEC
  0
SECTION
  2
BLOCKS
  0
BLOCK
  5
20
330
1F
100
AcDbEntity
  8
0
100
AcDbBlockBegin
  2
*Model_Space
 70
     0
 10
0.0
 20
0.0
 30
0.0
  3
*Model_Space
  1

  0
ENDBLK
  5
21
330
1F
100
AcDbEntity
  8
0
100
AcDbBlockEnd
  0
BLOCK
  5
1C
330
1B
100
AcDbEntity
 67
     1
  8
0
100
AcDbBlockBegin
  2
*Paper_Space
 70
     0
 10
0.0
 20
0.0
 30
0.0
  3
*Paper_Space
  1

  0
ENDBLK
  5
1D
330
1B
100
AcDbEntity
 67
     1
  8
0
100
AcDbBlockEnd
  0
BLOCK
  5
24
330
23
100
AcDbEntity
  8
0
100
AcDbBlockBegin
  2
*Paper_Space0
 70
     0
 10
0.0
 20
0.0
 30
0.0
  3
*Paper_Space0
  1

  0
ENDBLK
  5
25
330
23
100
AcDbEntity
  8
0
100
AcDbBlockEnd
  0
BLOCK
  5
41E
330
417
100
AcDbEntity
  8
0
100
AcDbBlockBegin
  2
*D1
 70
     1
 10
0.0
 20
0.0
 30
0.0
  3
*D1
  1

  0
LINE
  5
418
330
417
100
AcDbEntity
  8
1
  6
Continuous
 62
     2
100
AcDbLine
 10
-27.4220455494733
 20
186.1411685035743
 30
0.0
 11
-27.4220455494733
 21
150.6411685035743
 31
0.0
  0
LINE
  5
419
330
417
100
AcDbEntity
  8
1
  6
Continuous
 62
     2
100
AcDbLine
 10
-46.39999999999992
 20
186.1411685035743
 30
0.0
 11
-26.4220455494733
 21
186.1411685035743
 31
0.0
  0
LINE
  5
41A
330
417
100
AcDbEntity
  8
1
  6
Continuous
 62
     2
100
AcDbLine
 10
-41.59999999999991
 20
150.6411685035743
 30
0.0
 11
-26.4220455494733
 21
150.6411685035743
 31
0.0
  0
SOLID
  5
41B
330
417
100
AcDbEntity
  8
1
 62
     2
100
AcDbTrace
 10
-27.02708805671111
 20
183.1411685035743
 30
0.0
 11
-27.81700304223549
 21
183.1411685035743
 31
0.0
 12
-27.4220455494733
 22
186.1411685035743
 32
0.0
 13
-27.4220455494733
 23
186.1411685035743
 33
0.0
  0
SOLID
  5
41C
330
417
100
AcDbEntity
  8
1
 62
     2
100
AcDbTrace
 10
-27.81700304223549
 20
153.6411685035743
 30
0.0
 11
-27.02708805671111
 21
153.6411685035743
 31
0.0
 12
-27.4220455494733
 22
150.6411685035743
 32
0.0
 13
-27.4220455494733
 23
150.6411685035743
 33
0.0
  0
MTEXT
  5
41D
330
417
100
AcDbEntity
  8
1
 62
     4
100
AcDbMText
 10
-29.7220455494733
 20
164.2661685035743
 30
0.0
 40
3.0
 41
0.0
 71
     7
 72
     1
  1
35,5
  7
CONVERTER_11
 11
0.0
 21
1.0
 31
0.0
 73
     1
 44
0.60024009603842
  0
ENDBLK
  5
41F
330
417
100
AcDbEntity
  8
0
100
AcDbBlockEnd
  0
BLOCK
  5
429
330
422
100
AcDbEntity
  8
0
100
AcDbBlockBegin
  2
*D2
 70
     1
 10
0.0
 20
0.0
 30
0.0
  3
*D2
  1

  0
LINE
  5
423
330
422
100
AcDbEntity
  8
1
  6
Continuous
 62
     2
100
AcDbLine
 10
-74.09999999999985
 20
128.893710486078
 30
0.0
 11
-44.09999999999991
 21
128.893710486078
 31
0.0
  0
LINE
  5
424
330
422
100
AcDbEntity
  8
1
  6
Continuous
 62
     2
100
AcDbLine
 10
-74.09999999999985
 20
150.1411685035738
 30
0.0
 11
-74.09999999999985
 21
127.893710486078
 31
0.0
  0
LINE
  5
425
330
422
100
AcDbEntity
  8
1
  6
Continuous
 62
     2
100
AcDbLine
 10
-44.09999999999991
 20
150.1411685035743
 30
0.0
 11
-44.09999999999991
 21
127.893710486078
 31
0.0
  0
SOLID
  5
426
330
422
100
AcDbEntity
  8
1
 62
     2
100
AcDbTrace
 10
-71.09999999999985
 20
129.2886679788402
 30
0.0
 11
-71.09999999999985
 21
128.4987529933158
 31
0.0
 12
-74.09999999999985
 22
128.893710486078
 32
0.0
 13
-74.09999999999985
 23
128.893710486078
 33
0.0
  0
SOLID
  5
427
330
422
100
AcDbEntity
  8
1
 62
     2
100
AcDbTrace
 10
-47.09999999999991
 20
128.4987529933158
 30
0.0
 11
-47.09999999999991
 21
129.2886679788402
 31
0.0
 12
-44.09999999999991
 22
128.893710486078
 32
0.0
 13
-44.09999999999991
 23
128.893710486078
 33
0.0
  0
MTEXT
  5
428
330
422
100
AcDbEntity
  8
1
 62
     4
100
AcDbMText
 10
-61.34999999999988
 20
130.893710486078
 30
0.0
 40
3.0
 41
0.0
 71
     7
 72
     1
  1
30
  7
CONVERTER_11
 11
0.9999999999970619
 21
2.424068405545306E-6
 31
0.0
 73
     1
 44
0.60024009603842
  0
ENDBLK
  5
42A
330
422
100
AcDbEntity
  8
0
100
AcDbBlockEnd
  0
BLOCK
  5
434
330
42D
100
AcDbEntity
  8
0
100
AcDbBlockBegin
  2
*D3
 70
     1
 10
0.0
 20
0.0
 30
0.0
  3
*D3
  1

  0
LINE
  5
42E
330
42D
100
AcDbEntity
  8
1
  6
Continuous
 62
     2
100
AcDbLine
 10
-147.1000000000001
 20
128.743710486078
 30
0.0
 11
-117.7000000000001
 21
128.743710486078
 31
0.0
  0
LINE
  5
42F
330
42D
100
AcDbEntity
  8
1
  6
Continuous
 62
     2
100
AcDbLine
 10
-147.1000000000001
 20
150.1411685035736
 30
0.0
 11
-147.1000000000001
 21
127.743710486078
 31
0.0
  0
LINE
  5
430
330
42D
100
AcDbEntity
  8
1
  6
Continuous
 62
     2
100
AcDbLine
 10
-117.7000000000001
 20
150.141168503574
 30
0.0
 11
-117.7000000000001
 21
127.743710486078
 31
0.0
  0
SOLID
  5
431
330
42D
100
AcDbEntity
  8
1
 62
     2
100
AcDbTrace
 10
-144.1000000000001
 20
129.1386679788402
 30
0.0
 11
-144.1000000000001
 21
128.3487529933158
 31
0.0
 12
-147.1000000000001
 22
128.743710486078
 32
0.0
 13
-147.1000000000001
 23
128.743710486078
 33
0.0
  0
SOLID
  5
432
330
42D
100
AcDbEntity
  8
1
 62
     2
100
AcDbTrace
 10
-120.7000000000001
 20
128.3487529933158
 30
0.0
 11
-120.7000000000001
 21
129.1386679788402
 31
0.0
 12
-117.7000000000001
 22
128.743710486078
 32
0.0
 13
-117.7000000000001
 23
128.743710486078
 33
0.0
  0
MTEXT
  5
433
330
42D
100
AcDbEntity
  8
1
 62
     4
100
AcDbMText
 10
-136.5250000000001
 20
131.043710486078
 30
0.0
 40
3.0
 41
0.0
 71
     7
 72
     1
  1
29,4
  7
CONVERTER_11
 11
0.9999999999970619
 21
2.424068405545306E-6
 31
0.0
 73
     1
 44
0.60024009603842
  0
ENDBLK
  5
435
330
42D
100
AcDbEntity
  8
0
100
AcDbBlockEnd
  0
ENDSEC
  0
SECTION
  2
ENTITIES
  0
LINE
  5
48
330
1F
100
AcDbEntity
  8
1
  6
Continuous
 62
     4
100
AcDbLine
 10
-142.6209929572425
 20
161.4907685077133
 30
0.0
 11
-143.3088578215557
 21
161.8879074722906
 31
0.0
  0
LINE
  5
49
330
1F
100
AcDbEntity
  8
1
  6
Continuous
 62
     4
100
AcDbLine
 10
-143.2829006568648
 20
161.1086159191574
 30
0.0
 11
-142.6209929572425
 21
161.4907685077133
 31
0.0
  0
LINE
  5
4A
330
1F
100
AcDbEntity
  8
1
  6
Continuous
 62
     4
100
AcDbLine
 10
-141.4890147790962
 20
161.8879074722906
 30
0.0
 11
-143.3088578215557
 21
161.8879074722906
 31
0.0
  0
LINE
  5
4B
330
1F
100
AcDbEntity
  8
1
  6
Continuous
 62
     4
100
AcDbLine
 10
-141.9590852576199
 20
161.1086159191574
 30
0.0
 11
-143.2829006568648
 21
161.1086159191574
 31
0.0
  0
LINE
  5
4C
330
1F
100
AcDbEntity
  8
1
  6
Continuous
 62
     4
100
AcDbLine
 10
-143.1428013387051
 20
160.7039837665687
 30
0.0
 11
-141.7138104194233
 21
160.7039837665687
 31
0.0
  0
LINE
  5
4D
330
1F
100
AcDbEntity
  8
1
  6
Continuous
 62
     4
100
AcDbLine
 10
-141.9357240643618
 20
160.3193334486757
 30
0.0
 11
-142.9208876937667
 21
160.3193334486757
 31
0.0
  0
LINE
  5
4E
330
1F
100
AcDbEntity
  8
1
  6
Continuous
 62
     4
100
AcDbLine
 10
-141.7138104194233
 20
160.7039837665687
 30
0.0
 11
-141.2674649991111
 21
161.4776491617768
 31
0.0
  0
LINE
  5
4F
330
1F
100
AcDbEntity
  8
1
  6
Continuous
 62
     4
100
AcDbLine
 10
-141.7138104194233
 20
162.2775532488578
 30
0.0
 11
-141.9876374252895
 21
162.7521867256922
 31
0.0
  0
LINE
  5
50
330
1F
100
AcDbEntity
  8
1
  6
Continuous
 62
     4
100
AcDbLine
 10
-143.1360100907797
 20
162.2775532488578
 30
0.0
 11
-142.8621830849137
 21
162.7521867256922
 31
0.0
  0
LINE
  5
51
330
1F
100
AcDbEntity
  8
1
  6
Continuous
 62
     4
100
AcDbLine
 10
-143.1360100907797
 20
162.2775532488578
 30
0.0
 11
-141.7138104194233
 21
162.2775532488578
 31
0.0
  0
LINE
  5
52
330
1F
100
AcDbEntity
  8
1
  6
Continuous
 62
     4
100
AcDbLine
 10
-142.419411437601
 20
162.2775532488578
 30
0.0
 11
-142.419411437601
 21
162.7651517448558
 31
0.0
  0
LINE
  5
53
330
1F
100
AcDbEntity
  8
1
  6
Continuous
 62
     4
100
AcDbLine
 10
-140.9542899890451
 20
161.4907685077133
 30
0.0
 11
-142.3824492525345
 21
159.0152924509983
 31
0.0
  0
LINE
  5
54
330
1F
100
AcDbEntity
  8
1
  6
Continuous
 62
     4
100
AcDbLine
 10
-142.3824492525345
 20
163.9662445644283
 30
0.0
 11
-140.9542899890451
 21
161.4907685077133
 31
0.0
  0
LINE
  5
55
330
1F
100
AcDbEntity
  8
1
  6
Continuous
 62
     4
100
AcDbLine
 10
-143.8955305211578
 20
161.4907685077133
 30
0.0
 11
-142.4673712576685
 21
163.9662445644283
 31
0.0
  0
LINE
  5
56
330
1F
100
AcDbEntity
  8
1
  6
Continuous
 62
     4
100
AcDbLine
 10
-142.4673712576685
 20
159.0152924509983
 30
0.0
 11
-143.8955305211578
 21
161.4907685077133
 31
0.0
  0
LINE
  5
57
330
1F
100
AcDbEntity
  8
0
  6
Continuous
 62
     7
100
AcDbLine
 10
-133.9000000000002
 20
167.641168503574
 30
0.0
 11
-134.4000000000002
 21
167.641168503574
 31
0.0
  0
LINE
  5
58
330
1F
100
AcDbEntity
  8
0
  6
Continuous
 62
     7
100
AcDbLine
 10
-134.4000000000002
 20
167.641168503574
 30
0.0
 11
-134.4500000000001
 21
167.6411685035744
 31
0.0
  0
LINE
  5
59
330
1F
100
AcDbEntity
  8
0
  6
Continuous
 62
     7
100
AcDbLine
 10
-130.3999999999999
 20
167.641168503574
 30
0.0
 11
-130.8999999999999
 21
167.641168503574
 31
0.0
  0
LINE
  5
5A
330
1F
100
AcDbEntity
  8
0
  6
Continuous
 62
     7
100
AcDbLine
 10
-130.3500000000001
 20
167.6411685035744
 30
0.0
 11
-130.3999999999999
 21
167.641168503574
 31
0.0
  0
LINE
  5
5B
330
1F
100
AcDbEntity
  8
0
  6
Continuous
 62
     7
100
AcDbLine
 10
-67.09999999999997
 20
160.1411685035747
 30
0.0
 11
-67.09999999999991
 21
150.6411685035739
 31
0.0
  0
LINE
  5
5C
330
1F
100
AcDbEntity
  8
0
  6
Continuous
 62
     7
100
AcDbLine
 10
-67.626282737243
 20
150.6411685035739
 30
0.0
 11
-67.62628273724295
 21
160.1411685035747
 31
0.0
  0
LINE
  5
5D
330
1F
100
AcDbEntity
  8
0
  6
Continuous
 62
     7
100
AcDbLine
 10
-70.57371726275687
 20
160.1411685035747
 30
0.0
 11
-70.57371726275687
 21
150.6411685035739
 31
0.0
  0
LINE
  5
5E
330
1F
100
AcDbEntity
  8
0
  6
Continuous
 62
     7
100
AcDbLine
 10
-71.09999999999991
 20
160.1411685035746
 30
0.0
 11
-71.09999999999991
 21
150.6411685035739
 31
0.0
  0
LINE
  5
5F
330
1F
100
AcDbEntity
  8
0
  6
Continuous
 62
     7
100
AcDbLine
 10
-71.09999999999991
 20
160.1411685035746
 30
0.0
 11
-70.57371726275687
 21
160.1411685035747
 31
0.0
  0
LINE
  5
60
330
1F
100
AcDbEntity
  8
0
  6
Continuous
 62
     7
100
AcDbLine
 10
-67.62628273724295
 20
160.1411685035747
 30
0.0
 11
-67.09999999999997
 21
160.1411685035747
 31
0.0
  0
LINE
  5
61
330
1F
100
AcDbEntity
  8
0
  6
Continuous
 62
     7
100
AcDbLine
 10
-70.57371726275687
 20
160.1411685035747
 30
0.0
 11
-67.62628273724295
 21
160.1411685035747
 31
0.0
  0
LINE
  5
62
330
1F
100
AcDbEntity
  8
0
  6
Continuous
 62
     7
100
AcDbLine
 10
-50.57371726275687
 20
160.1411685035747
 30
0.0
 11
-50.57371726275687
 21
150.6411685035742
 31
0.0
  0
LINE
  5
63
330
1F
100
AcDbEntity
  8
0
  6
DASHED
 62
     7
100
AcDbLine
 10
-141.2000000000001
 20
82.35935674649505
 30
0.0
 11
-140.4000000000002
 21
82.35935674649505
 31
0.0
  0
LINE
  5
64
330
1F
100
AcDbEntity
  8
0
  6
DASHED
 62
     7
100
AcDbLine
 10
-124.4000000000002
 20
82.35935674649505
 30
0.0
 11
-123.6000000000001
 21
82.35935674649505
 31
0.0
  0
LINE
  5
65
330
1F
100
AcDbEntity
  8
0
  6
DASHED
 62
     7
100
AcDbLine
 10
-123.6000000000001
 20
82.35935674649505
 30
0.0
 11
-123.1500000000002
 21
82.35935674649505
 31
0.0
  0
LINE
  5
66
330
1F
100
AcDbEntity
  8
0
  6
DASHED
 62
     7
100
AcDbLine
 10
-141.6500000000002
 20
82.35935674649505
 30
0.0
 11
-141.2000000000001
 21
82.35935674649505
 31
0.0
  0
LINE
  5
67
330
1F
100
AcDbEntity
  8
0
  6
DASHED
 62
     7
100
AcDbLine
 10
-122.8500000000001
 20
82.35935674649505
 30
0.0
 11
-123.1500000000002
 21
82.35935674649505
 31
0.0
  0
LINE
  5
68
330
1F
100
AcDbEntity
  8
0
  6
DASHED
 62
     7
100
AcDbLine
 10
-122.6500000000002
 20
82.35935674649495
 30
0.0
 11
-122.8500000000001
 21
82.35935674649505
 31
0.0
  0
LINE
  5
69
330
1F
100
AcDbEntity
  8
0
  6
DASHED
 62
     7
100
AcDbLine
 10
-122.6500000000002
 20
82.35935674649495
 30
0.0
 11
-122.2000000000001
 21
82.35935674649505
 31
0.0
  0
LINE
  5
6A
330
1F
100
AcDbEntity
  8
0
  6
DASHED
 62
     7
100
AcDbLine
 10
-141.9500000000001
 20
82.35935674649505
 30
0.0
 11
-141.6500000000002
 21
82.35935674649505
 31
0.0
  0
LINE
  5
6B
330
1F
100
AcDbEntity
  8
0
  6
DASHED
 62
     7
100
AcDbLine
 10
-142.1500000000002
 20
82.35935674649495
 30
0.0
 11
-141.9500000000001
 21
82.35935674649505
 31
0.0
  0
LINE
  5
6C
330
1F
100
AcDbEntity
  8
0
  6
DASHED
 62
     7
100
AcDbLine
 10
-142.6000000000001
 20
82.35935674649505
 30
0.0
 11
-142.1500000000002
 21
82.35935674649495
 31
0.0
  0
LINE
  5
6D
330
1F
100
AcDbEntity
  8
0
  6
DASHED
 62
     7
100
AcDbLine
 10
-126.4000000000001
 20
94.90935674649502
 30
0.0
 11
-138.4000000000001
 21
94.90935674649502
 31
0.0
  0
LINE
  5
6E
330
1F
100
AcDbEntity
  8
0
  6
DASHED
 62
     7
100
AcDbLine
 10
-126.4000000000001
 20
88.00935674649504
 30
0.0
 11
-126.4000000000001
 21
94.90935674649502
 31
0.0
  0
LINE
  5
6F
330
1F
100
AcDbEntity
  8
0
  6
DASHED
 62
     7
100
AcDbLine
 10
-122.8500000000001
 20
83.95935674649505
 30
0.0
 11
-122.8500000000001
 21
82.35935674649505
 31
0.0
  0
LINE
  5
70
330
1F
100
AcDbEntity
  8
0
  6
DASHED
 62
     7
100
AcDbLine
 10
-124.4000000000001
 20
83.95935674649505
 30
0.0
 11
-122.8500000000001
 21
83.95935674649505
 31
0.0
  0
LINE
  5
71
330
1F
100
AcDbEntity
  8
0
  6
DASHED
 62
     7
100
AcDbLine
 10
-122.2000000000001
 20
83.95935674649505
 30
0.0
 11
-122.2000000000001
 21
82.35935674649505
 31
0.0
  0
LINE
  5
72
330
1F
100
AcDbEntity
  8
0
  6
DASHED
 62
     7
100
AcDbLine
 10
-124.4000000000002
 20
84.15935674649515
 30
0.0
 11
-124.4000000000001
 21
83.95935674649505
 31
0.0
  0
LINE
  5
73
330
1F
100
AcDbEntity
  8
0
  6
DASHED
 62
     7
100
AcDbLine
 10
-141.9500000000001
 20
83.95935674649505
 30
0.0
 11
-141.9500000000001
 21
82.35935674649505
 31
0.0
  0
LINE
  5
74
330
1F
100
AcDbEntity
  8
0
  6
DASHED
 62
     7
100
AcDbLine
 10
-142.6000000000001
 20
83.95935674649505
 30
0.0
 11
-142.6000000000001
 21
82.35935674649505
 31
0.0
  0
LINE
  5
75
330
1F
100
AcDbEntity
  8
0
  6
DASHED
 62
     7
100
AcDbLine
 10
-140.4000000000001
 20
83.95935674649505
 30
0.0
 11
-140.4000000000002
 21
84.15935674649515
 31
0.0
  0
LINE
  5
76
330
1F
100
AcDbEntity
  8
0
  6
DASHED
 62
     7
100
AcDbLine
 10
-141.9500000000001
 20
83.95935674649505
 30
0.0
 11
-142.6000000000001
 21
83.95935674649505
 31
0.0
  0
LINE
  5
77
330
1F
100
AcDbEntity
  8
0
  6
DASHED
 62
     7
100
AcDbLine
 10
-141.9500000000001
 20
83.95935674649505
 30
0.0
 11
-140.4000000000001
 21
83.95935674649505
 31
0.0
  0
LINE
  5
78
330
1F
100
AcDbEntity
  8
0
  6
DASHED
 62
     7
100
AcDbLine
 10
-138.4000000000001
 20
94.90935674649502
 30
0.0
 11
-138.4000000000001
 21
88.00935674649504
 31
0.0
  0
LINE
  5
79
330
1F
100
AcDbEntity
  8
0
  6
DASHED
 62
     7
100
AcDbLine
 10
-122.8500000000001
 20
83.95935674649505
 30
0.0
 11
-122.2000000000001
 21
83.95935674649505
 31
0.0
  0
LINE
  5
7A
330
1F
100
AcDbEntity
  8
0
  6
DASHED
 62
     7
100
AcDbLine
 10
-130.4000000000001
 20
84.75935674649504
 30
0.0
 11
-134.4000000000001
 21
84.75935674649504
 31
0.0
  0
LINE
  5
7B
330
1F
100
AcDbEntity
  8
0
  6
DASHED
 62
     7
100
AcDbLine
 10
-135.5500000000001
 20
86.05935674649504
 30
0.0
 11
-135.5500000000001
 21
88.00935674649504
 31
0.0
  0
LINE
  5
7C
330
1F
100
AcDbEntity
  8
0
  6
DASHED
 62
     7
100
AcDbLine
 10
-126.4000000000001
 20
88.00935674649504
 30
0.0
 11
-129.2500000000001
 21
88.00935674649504
 31
0.0
  0
LINE
  5
7D
330
1F
100
AcDbEntity
  8
0
  6
DASHED
 62
     7
100
AcDbLine
 10
-129.2500000000001
 20
88.00935674649504
 30
0.0
 11
-129.2500000000001
 21
86.05935674649504
 31
0.0
  0
LINE
  5
7E
330
1F
100
AcDbEntity
  8
0
  6
DASHED
 62
     7
100
AcDbLine
 10
-129.2500000000001
 20
86.05935674649504
 30
0.0
 11
-130.4000000000001
 21
86.05935674649504
 31
0.0
  0
LINE
  5
7F
330
1F
100
AcDbEntity
  8
0
  6
DASHED
 62
     7
100
AcDbLine
 10
-130.4000000000001
 20
86.05935674649504
 30
0.0
 11
-130.4000000000001
 21
84.75935674649504
 31
0.0
  0
LINE
  5
80
330
1F
100
AcDbEntity
  8
0
  6
DASHED
 62
     7
100
AcDbLine
 10
-135.5500000000001
 20
88.00935674649504
 30
0.0
 11
-138.4000000000001
 21
88.00935674649504
 31
0.0
  0
LINE
  5
81
330
1F
100
AcDbEntity
  8
0
  6
DASHED
 62
     7
100
AcDbLine
 10
-134.4000000000001
 20
84.75935674649504
 30
0.0
 11
-134.4000000000001
 21
86.05935674649504
 31
0.0
  0
LINE
  5
82
330
1F
100
AcDbEntity
  8
0
  6
DASHED
 62
     7
100
AcDbLine
 10
-134.4000000000001
 20
86.05935674649504
 30
0.0
 11
-135.5500000000001
 21
86.05935674649504
 31
0.0
  0
LINE
  5
83
330
1F
100
AcDbEntity
  8
0
  6
Continuous
 62
     7
100
AcDbLine
 10
-127.6500000000001
 20
108.4593567464949
 30
0.0
 11
-122.4500000000001
 21
108.4593567464949
 31
0.0
  0
LINE
  5
84
330
1F
100
AcDbEntity
  8
0
  6
Continuous
 62
     7
100
AcDbLine
 10
-128.1500000000001
 20
106.4593567464949
 30
0.0
 11
-121.9500000000001
 21
106.4593567464949
 31
0.0
  0
LINE
  5
85
330
1F
100
AcDbEntity
  8
0
  6
Continuous
 62
     7
100
AcDbLine
 10
-121.9500000000001
 20
108.4593567464949
 30
0.0
 11
-122.4500000000001
 21
108.4593567464949
 31
0.0
  0
LINE
  5
86
330
1F
100
AcDbEntity
  8
0
  6
Continuous
 62
     7
100
AcDbLine
 10
-117.7000000000001
 20
102.5356677771479
 30
0.0
 11
-117.7000000000001
 21
101.459356746495
 31
0.0
  0
LINE
  5
87
330
1F
100
AcDbEntity
  8
0
  6
Continuous
 62
     7
100
AcDbLine
 10
-117.7000000000001
 20
102.803616969579
 30
0.0
 11
-117.7000000000001
 21
102.5356677771479
 31
0.0
  0
LINE
  5
88
330
1F
100
AcDbEntity
  8
0
  6
Continuous
 62
     7
100
AcDbLine
 10
-117.7000000000001
 20
101.459356746495
 30
0.0
 11
-117.7000000000001
 21
100.3830457158422
 31
0.0
  0
LINE
  5
89
330
1F
100
AcDbEntity
  8
0
  6
Continuous
 62
     7
100
AcDbLine
 10
-117.7000000000001
 20
100.3830457158422
 30
0.0
 11
-117.7000000000001
 21
100.115096523411
 31
0.0
  0
LINE
  5
8A
330
1F
100
AcDbEntity
  8
0
  6
Continuous
 62
     7
100
AcDbLine
 10
-141.2000000000001
 20
82.35935674649505
 30
0.0
 11
-140.4000000000002
 21
82.35935674649505
 31
0.0
  0
LINE
  5
8B
330
1F
100
AcDbEntity
  8
0
  6
Continuous
 62
     7
100
AcDbLine
 10
-124.4000000000002
 20
82.35935674649505
 30
0.0
 11
-123.6000000000001
 21
82.35935674649505
 31
0.0
  0
LINE
  5
8C
330
1F
100
AcDbEntity
  8
0
  6
Continuous
 62
     7
100
AcDbLine
 10
-123.6000000000001
 20
82.35935674649505
 30
0.0
 11
-123.1500000000002
 21
82.35935674649505
 31
0.0
  0
LINE
  5
8D
330
1F
100
AcDbEntity
  8
0
  6
Continuous
 62
     7
100
AcDbLine
 10
-141.6500000000002
 20
82.35935674649505
 30
0.0
 11
-141.2000000000001
 21
82.35935674649505
 31
0.0
  0
LINE
  5
8E
330
1F
100
AcDbEntity
  8
0
  6
Continuous
 62
     7
100
AcDbLine
 10
-117.7000000000001
 20
81.45935674649496
 30
0.0
 11
-117.7000000000001
 21
80.38304571584214
 31
0.0
  0
LINE
  5
8F
330
1F
100
AcDbEntity
  8
0
  6
Continuous
 62
     7
100
AcDbLine
 10
-122.6500000000002
 20
82.35935674649495
 30
0.0
 11
-122.6500000000002
 21
79.25935674649504
 31
0.0
  0
LINE
  5
90
330
1F
100
AcDbEntity
  8
0
  6
Continuous
 62
     7
100
AcDbLine
 10
-122.8500000000001
 20
82.35935674649505
 30
0.0
 11
-123.1500000000002
 21
82.35935674649505
 31
0.0
  0
LINE
  5
91
330
1F
100
AcDbEntity
  8
0
  6
Continuous
 62
     7
100
AcDbLine
 10
-122.6500000000002
 20
82.35935674649495
 30
0.0
 11
-122.8500000000001
 21
82.35935674649505
 31
0.0
  0
LINE
  5
92
330
1F
100
AcDbEntity
  8
0
  6
Continuous
 62
     7
100
AcDbLine
 10
-122.6500000000002
 20
82.35935674649495
 30
0.0
 11
-122.2000000000001
 21
82.35935674649505
 31
0.0
  0
LINE
  5
93
330
1F
100
AcDbEntity
  8
0
  6
Continuous
 62
     7
100
AcDbLine
 10
-143.8500000000001
 20
76.45935674649499
 30
0.0
 11
-147.1000000000001
 21
76.45935674649499
 31
0.0
  0
LINE
  5
94
330
1F
100
AcDbEntity
  8
0
  6
Continuous
 62
     7
100
AcDbLine
 10
-135.6500000000001
 20
76.45935674649499
 30
0.0
 11
-143.8500000000001
 21
76.45935674649499
 31
0.0
  0
LINE
  5
95
330
1F
100
AcDbEntity
  8
0
  6
Continuous
 62
     7
100
AcDbLine
 10
-117.7000000000001
 20
76.45935674649499
 30
0.0
 11
-120.9500000000001
 21
76.45935674649499
 31
0.0
  0
LINE
  5
96
330
1F
100
AcDbEntity
  8
0
  6
Continuous
 62
     7
100
AcDbLine
 10
-129.1500000000001
 20
76.45935674649499
 30
0.0
 11
-135.6500000000001
 21
76.45935674649499
 31
0.0
  0
LINE
  5
97
330
1F
100
AcDbEntity
  8
0
  6
Continuous
 62
     7
100
AcDbLine
 10
-120.9500000000001
 20
76.45935674649499
 30
0.0
 11
-129.1500000000001
 21
76.45935674649499
 31
0.0
  0
LINE
  5
98
330
1F
100
AcDbEntity
  8
0
  6
Continuous
 62
     7
100
AcDbLine
 10
-141.1500000000002
 20
78.25935674649504
 30
0.0
 11
-123.6500000000002
 21
78.25935674649504
 31
0.0
  0
LINE
  5
99
330
1F
100
AcDbEntity
  8
0
  6
Continuous
 62
     7
100
AcDbLine
 10
-141.9500000000001
 20
82.35935674649505
 30
0.0
 11
-141.6500000000002
 21
82.35935674649505
 31
0.0
  0
LINE
  5
9A
330
1F
100
AcDbEntity
  8
0
  6
Continuous
 62
     7
100
AcDbLine
 10
-142.1500000000002
 20
82.35935674649495
 30
0.0
 11
-141.9500000000001
 21
82.35935674649505
 31
0.0
  0
LINE
  5
9B
330
1F
100
AcDbEntity
  8
0
  6
Continuous
 62
     7
100
AcDbLine
 10
-142.6000000000001
 20
82.35935674649505
 30
0.0
 11
-142.1500000000002
 21
82.35935674649495
 31
0.0
  0
LINE
  5
9C
330
1F
100
AcDbEntity
  8
0
  6
Continuous
 62
     7
100
AcDbLine
 10
-142.6500000000002
 20
82.35935674649495
 30
0.0
 11
-142.6000000000001
 21
82.35935674649505
 31
0.0
  0
LINE
  5
9D
330
1F
100
AcDbEntity
  8
0
  6
Continuous
 62
     7
100
AcDbLine
 10
-147.1000000000001
 20
106.459356746495
 30
0.0
 11
-147.1000000000001
 21
76.45935674649499
 31
0.0
  0
LINE
  5
9E
330
1F
100
AcDbEntity
  8
0
  6
Continuous
 62
     7
100
AcDbLine
 10
-120.8500000000002
 20
84.00935674649494
 30
0.0
 11
-120.8500000000002
 21
82.50935674649494
 31
0.0
  0
LINE
  5
9F
330
1F
100
AcDbEntity
  8
0
  6
Continuous
 62
     7
100
AcDbLine
 10
-120.8500000000002
 20
82.50935674649494
 30
0.0
 11
-121.8500000000002
 21
82.50935674649494
 31
0.0
  0
LINE
  5
A0
330
1F
100
AcDbEntity
  8
0
  6
Continuous
 62
     7
100
AcDbLine
 10
-120.8500000000002
 20
84.00935674649494
 30
0.0
 11
-121.8500000000002
 21
84.00935674649494
 31
0.0
  0
LINE
  5
A1
330
1F
100
AcDbEntity
  8
0
  6
Continuous
 62
     7
100
AcDbLine
 10
-122.1500000000002
 20
82.50935674649494
 30
0.0
 11
-122.2000000000001
 21
82.50935674649494
 31
0.0
  0
LINE
  5
A2
330
1F
100
AcDbEntity
  8
0
  6
Continuous
 62
     7
100
AcDbLine
 10
-124.4000000000002
 20
84.15935674649515
 30
0.0
 11
-124.4000000000001
 21
83.95935674649505
 31
0.0
  0
LINE
  5
A3
330
1F
100
AcDbEntity
  8
0
  6
Continuous
 62
     7
100
AcDbLine
 10
-119.5000000000001
 20
86.65935674649515
 30
0.0
 11
-119.5000000000001
 21
101.859356746495
 31
0.0
  0
LINE
  5
A4
330
1F
100
AcDbEntity
  8
0
  6
Continuous
 62
     7
100
AcDbLine
 10
-140.4000000000002
 20
82.35935674649505
 30
0.0
 11
-140.4000000000001
 21
83.95935674649505
 31
0.0
  0
LINE
  5
A5
330
1F
100
AcDbEntity
  8
0
  6
Continuous
 62
     7
100
AcDbLine
 10
-142.1500000000002
 20
79.25935674649504
 30
0.0
 11
-142.1500000000002
 21
82.35935674649495
 31
0.0
  0
LINE
  5
A6
330
1F
100
AcDbEntity
  8
0
  6
Continuous
 62
     7
100
AcDbLine
 10
-143.9500000000002
 20
82.50935674649494
 30
0.0
 11
-142.9500000000002
 21
82.50935674649494
 31
0.0
  0
LINE
  5
A7
330
1F
100
AcDbEntity
  8
0
  6
Continuous
 62
     7
100
AcDbLine
 10
-143.9500000000002
 20
82.50935674649494
 30
0.0
 11
-143.9500000000002
 21
84.00935674649494
 31
0.0
  0
LINE
  5
A8
330
1F
100
AcDbEntity
  8
0
  6
Continuous
 62
     7
100
AcDbLine
 10
-143.9500000000002
 20
84.00935674649494
 30
0.0
 11
-142.9500000000002
 21
84.00935674649504
 31
0.0
  0
LINE
  5
A9
330
1F
100
AcDbEntity
  8
0
  6
Continuous
 62
     7
100
AcDbLine
 10
-140.4000000000001
 20
83.95935674649505
 30
0.0
 11
-140.4000000000002
 21
84.15935674649515
 31
0.0
  0
LINE
  5
AA
330
1F
100
AcDbEntity
  8
0
  6
Continuous
 62
     7
100
AcDbLine
 10
-122.6500000000002
 20
84.00935674649494
 30
0.0
 11
-122.6500000000002
 21
83.95935674649505
 31
0.0
  0
LINE
  5
AB
330
1F
100
AcDbEntity
  8
0
  6
Continuous
 62
     7
100
AcDbLine
 10
-122.3000000000001
 20
104.659356746495
 30
0.0
 11
-142.5000000000001
 21
104.659356746495
 31
0.0
  0
LINE
  5
AC
330
1F
100
AcDbEntity
  8
0
  6
Continuous
 62
     7
100
AcDbLine
 10
-122.1500000000002
 20
85.65935674649515
 30
0.0
 11
-120.5000000000001
 21
85.65935674649515
 31
0.0
  0
LINE
  5
AD
330
1F
100
AcDbEntity
  8
0
  6
Continuous
 62
     7
100
AcDbLine
 10
-144.3000000000001
 20
85.65935674649515
 30
0.0
 11
-142.6500000000002
 21
85.65935674649515
 31
0.0
  0
LINE
  5
AE
330
1F
100
AcDbEntity
  8
0
  6
Continuous
 62
     7
100
AcDbLine
 10
-136.6500000000001
 20
106.4593567464949
 30
0.0
 11
-128.1500000000001
 21
106.4593567464949
 31
0.0
  0
LINE
  5
AF
330
1F
100
AcDbEntity
  8
0
  6
Continuous
 62
     7
100
AcDbLine
 10
-142.3500000000001
 20
108.4593567464949
 30
0.0
 11
-137.1500000000001
 21
108.4593567464949
 31
0.0
  0
LINE
  5
B0
330
1F
100
AcDbEntity
  8
0
  6
Continuous
 62
     7
100
AcDbLine
 10
-142.8500000000001
 20
106.4593567464949
 30
0.0
 11
-136.6500000000001
 21
106.4593567464949
 31
0.0
  0
LINE
  5
B1
330
1F
100
AcDbEntity
  8
0
  6
Continuous
 62
     7
100
AcDbLine
 10
-128.1500000000001
 20
106.4593567464949
 30
0.0
 11
-128.1500000000001
 21
108.4593567464949
 31
0.0
  0
LINE
  5
B2
330
1F
100
AcDbEntity
  8
0
  6
Continuous
 62
     7
100
AcDbLine
 10
-128.1500000000001
 20
108.4593567464949
 30
0.0
 11
-127.6500000000001
 21
108.4593567464949
 31
0.0
  0
LINE
  5
B3
330
1F
100
AcDbEntity
  8
0
  6
Continuous
 62
     7
100
AcDbLine
 10
-121.9500000000001
 20
108.4593567464949
 30
0.0
 11
-121.9500000000001
 21
106.4593567464949
 31
0.0
  0
LINE
  5
B4
330
1F
100
AcDbEntity
  8
0
  6
Continuous
 62
     7
100
AcDbLine
 10
-136.6500000000001
 20
108.4593567464949
 30
0.0
 11
-137.1500000000001
 21
108.4593567464949
 31
0.0
  0
LINE
  5
B5
330
1F
100
AcDbEntity
  8
0
  6
Continuous
 62
     7
100
AcDbLine
 10
-117.7000000000001
 20
106.459356746495
 30
0.0
 11
-117.7000000000001
 21
102.803616969579
 31
0.0
  0
LINE
  5
B6
330
1F
100
AcDbEntity
  8
0
  6
Continuous
 62
     7
100
AcDbLine
 10
-121.9500000000001
 20
106.4593567464949
 30
0.0
 11
-117.7000000000001
 21
106.459356746495
 31
0.0
  0
LINE
  5
B7
330
1F
100
AcDbEntity
  8
0
  6
Continuous
 62
     7
100
AcDbLine
 10
-136.6500000000001
 20
108.4593567464949
 30
0.0
 11
-136.6500000000001
 21
106.4593567464949
 31
0.0
  0
LINE
  5
B8
330
1F
100
AcDbEntity
  8
0
  6
Continuous
 62
     7
100
AcDbLine
 10
-142.8500000000001
 20
106.4593567464949
 30
0.0
 11
-142.8500000000001
 21
108.4593567464949
 31
0.0
  0
LINE
  5
B9
330
1F
100
AcDbEntity
  8
0
  6
Continuous
 62
     7
100
AcDbLine
 10
-142.8500000000001
 20
108.4593567464949
 30
0.0
 11
-142.3500000000001
 21
108.4593567464949
 31
0.0
  0
LINE
  5
BA
330
1F
100
AcDbEntity
  8
0
  6
Continuous
 62
     7
100
AcDbLine
 10
-147.1000000000001
 20
106.459356746495
 30
0.0
 11
-142.8500000000001
 21
106.4593567464949
 31
0.0
  0
LINE
  5
BB
330
1F
100
AcDbEntity
  8
0
  6
Continuous
 62
     7
100
AcDbLine
 10
-117.7000000000001
 20
100.115096523411
 30
0.0
 11
-117.7000000000001
 21
82.80361696957897
 31
0.0
  0
LINE
  5
BC
330
1F
100
AcDbEntity
  8
0
  6
Continuous
 62
     7
100
AcDbLine
 10
-117.0679491924312
 20
101.7599960073865
 30
0.0
 11
-117.5432879227877
 21
101.654615947919
 31
0.0
  0
LINE
  5
BD
330
1F
100
AcDbEntity
  8
0
  6
Continuous
 62
     7
100
AcDbLine
 10
-116.8000000000001
 20
101.9799158835423
 30
0.0
 11
-116.8000000000001
 21
102.5954196310715
 31
0.0
  0
LINE
  5
BE
330
1F
100
AcDbEntity
  8
0
  6
Continuous
 62
     7
100
AcDbLine
 10
-117.0679491924312
 20
101.7599960073865
 30
0.0
 11
-116.9567120772125
 21
101.7846566821183
 31
0.0
  0
LINE
  5
BF
330
1F
100
AcDbEntity
  8
0
  6
Continuous
 62
     7
100
AcDbLine
 10
-116.9567120772125
 20
101.1340568108717
 30
0.0
 11
-117.0679491924312
 21
101.1587174856035
 31
0.0
  0
LINE
  5
C0
330
1F
100
AcDbEntity
  8
0
  6
Continuous
 62
     7
100
AcDbLine
 10
-116.8000000000001
 20
100.3232938619185
 30
0.0
 11
-116.8000000000001
 21
100.9387976094477
 31
0.0
  0
LINE
  5
C1
330
1F
100
AcDbEntity
  8
0
  6
Continuous
 62
     7
100
AcDbLine
 10
-117.0679491924312
 20
81.75999600738646
 30
0.0
 11
-116.9567120772125
 21
81.78465668211825
 31
0.0
  0
LINE
  5
C2
330
1F
100
AcDbEntity
  8
0
  6
Continuous
 62
     7
100
AcDbLine
 10
-116.8000000000001
 20
81.97991588354225
 30
0.0
 11
-116.8000000000001
 21
82.59541963107148
 31
0.0
  0
LINE
  5
C3
330
1F
100
AcDbEntity
  8
0
  6
Continuous
 62
     7
100
AcDbLine
 10
-116.9567120772125
 20
81.13405681087167
 30
0.0
 11
-117.0679491924312
 21
81.15871748560349
 31
0.0
  0
LINE
  5
C4
330
1F
100
AcDbEntity
  8
0
  6
Continuous
 62
     7
100
AcDbLine
 10
-117.0845236523482
 20
102.7766811884788
 30
0.0
 11
-117.415476347652
 21
102.6223554121716
 31
0.0
  0
LINE
  5
C5
330
1F
100
AcDbEntity
  8
0
  6
Continuous
 62
     7
100
AcDbLine
 10
-122.6500000000002
 20
85.15935674649515
 30
0.0
 11
-122.6500000000002
 21
84.15935674649515
 31
0.0
  0
LINE
  5
C6
330
1F
100
AcDbEntity
  8
0
  6
Continuous
 62
     7
100
AcDbLine
 10
-125.4000000000002
 20
84.15935674649495
 30
0.0
 11
-125.4000000000002
 21
95.75935674649499
 31
0.0
  0
LINE
  5
C7
330
1F
100
AcDbEntity
  8
0
  6
Continuous
 62
     7
100
AcDbLine
 10
-122.1500000000002
 20
84.15935674649495
 30
0.0
 11
-122.1500000000002
 21
84.00935674649494
 31
0.0
  0
LINE
  5
C8
330
1F
100
AcDbEntity
  8
0
  6
Continuous
 62
     7
100
AcDbLine
 10
-117.0845236523482
 20
82.77668118847882
 30
0.0
 11
-117.415476347652
 21
82.62235541217163
 31
0.0
  0
LINE
  5
C9
330
1F
100
AcDbEntity
  8
0
  6
Continuous
 62
     7
100
AcDbLine
 10
-122.6500000000002
 20
84.00935674649494
 30
0.0
 11
-122.1500000000002
 21
84.00935674649494
 31
0.0
  0
LINE
  5
CA
330
1F
100
AcDbEntity
  8
0
  6
Continuous
 62
     7
100
AcDbLine
 10
-122.1500000000002
 20
84.00935674649494
 30
0.0
 11
-121.8500000000002
 21
84.00935674649494
 31
0.0
  0
LINE
  5
CB
330
1F
100
AcDbEntity
  8
0
  6
Continuous
 62
     7
100
AcDbLine
 10
-122.1500000000002
 20
84.15935674649495
 30
0.0
 11
-122.6500000000002
 21
84.15935674649515
 31
0.0
  0
LINE
  5
CC
330
1F
100
AcDbEntity
  8
0
  6
Continuous
 62
     7
100
AcDbLine
 10
-122.6500000000002
 20
84.15935674649515
 30
0.0
 11
-123.1500000000002
 21
84.15935674649515
 31
0.0
  0
LINE
  5
CD
330
1F
100
AcDbEntity
  8
0
  6
Continuous
 62
     7
100
AcDbLine
 10
-123.1500000000002
 20
84.15935674649515
 30
0.0
 11
-124.4000000000002
 21
84.15935674649515
 31
0.0
  0
LINE
  5
CE
330
1F
100
AcDbEntity
  8
0
  6
Continuous
 62
     7
100
AcDbLine
 10
-117.7000000000001
 20
82.80361696957897
 30
0.0
 11
-117.7000000000001
 21
82.53566777714795
 31
0.0
  0
LINE
  5
CF
330
1F
100
AcDbEntity
  8
0
  6
Continuous
 62
     7
100
AcDbLine
 10
-139.4000000000002
 20
95.75935674649499
 30
0.0
 11
-139.4000000000002
 21
84.15935674649495
 31
0.0
  0
LINE
  5
D0
330
1F
100
AcDbEntity
  8
0
  6
Continuous
 62
     7
100
AcDbLine
 10
-125.4000000000002
 20
95.75935674649499
 30
0.0
 11
-139.4000000000002
 21
95.75935674649499
 31
0.0
  0
LINE
  5
D1
330
1F
100
AcDbEntity
  8
0
  6
Continuous
 62
     7
100
AcDbLine
 10
-143.8500000000001
 20
74.45935674649499
 30
0.0
 11
-143.8500000000001
 21
76.45935674649499
 31
0.0
  0
LINE
  5
D2
330
1F
100
AcDbEntity
  8
0
  6
Continuous
 62
     7
100
AcDbLine
 10
-117.415476347652
 20
80.2963580808183
 30
0.0
 11
-117.0845236523482
 21
80.14203230451113
 31
0.0
  0
LINE
  5
D3
330
1F
100
AcDbEntity
  8
0
  6
Continuous
 62
     7
100
AcDbLine
 10
-117.7000000000001
 20
80.11509652341098
 30
0.0
 11
-117.7000000000001
 21
76.45935674649499
 31
0.0
  0
LINE
  5
D4
330
1F
100
AcDbEntity
  8
0
  6
Continuous
 62
     7
100
AcDbLine
 10
-143.3500000000001
 20
74.45935674649499
 30
0.0
 11
-136.1500000000001
 21
74.45935674649499
 31
0.0
  0
LINE
  5
D5
330
1F
100
AcDbEntity
  8
0
  6
Continuous
 62
     7
100
AcDbLine
 10
-143.8500000000001
 20
74.45935674649499
 30
0.0
 11
-143.3500000000001
 21
74.45935674649499
 31
0.0
  0
LINE
  5
D6
330
1F
100
AcDbEntity
  8
0
  6
Continuous
 62
     7
100
AcDbLine
 10
-129.1500000000001
 20
74.45935674649499
 30
0.0
 11
-128.6500000000001
 21
74.45935674649499
 31
0.0
  0
LINE
  5
D7
330
1F
100
AcDbEntity
  8
0
  6
Continuous
 62
     7
100
AcDbLine
 10
-120.9500000000001
 20
74.45935674649499
 30
0.0
 11
-121.4500000000001
 21
74.45935674649499
 31
0.0
  0
LINE
  5
D8
330
1F
100
AcDbEntity
  8
0
  6
Continuous
 62
     7
100
AcDbLine
 10
-135.6500000000001
 20
74.45935674649499
 30
0.0
 11
-136.1500000000001
 21
74.45935674649499
 31
0.0
  0
LINE
  5
D9
330
1F
100
AcDbEntity
  8
0
  6
Continuous
 62
     7
100
AcDbLine
 10
-135.6500000000001
 20
76.45935674649499
 30
0.0
 11
-135.6500000000001
 21
74.45935674649499
 31
0.0
  0
LINE
  5
DA
330
1F
100
AcDbEntity
  8
0
  6
Continuous
 62
     7
100
AcDbLine
 10
-139.4000000000002
 20
84.15935674649495
 30
0.0
 11
-125.4000000000002
 21
84.15935674649495
 31
0.0
  0
LINE
  5
DB
330
1F
100
AcDbEntity
  8
0
  6
Continuous
 62
     7
100
AcDbLine
 10
-117.0679491924312
 20
81.75999600738646
 30
0.0
 11
-117.5432879227877
 21
81.65461594791896
 31
0.0
  0
LINE
  5
DC
330
1F
100
AcDbEntity
  8
0
  6
Continuous
 62
     7
100
AcDbLine
 10
-121.8500000000002
 20
84.00935674649494
 30
0.0
 11
-121.8500000000002
 21
82.50935674649494
 31
0.0
  0
LINE
  5
DD
330
1F
100
AcDbEntity
  8
0
  6
Continuous
 62
     7
100
AcDbLine
 10
-142.1500000000002
 20
84.15935674649495
 30
0.0
 11
-141.6500000000002
 21
84.15935674649495
 31
0.0
  0
LINE
  5
DE
330
1F
100
AcDbEntity
  8
0
  6
Continuous
 62
     7
100
AcDbLine
 10
-140.4000000000002
 20
84.15935674649515
 30
0.0
 11
-141.6500000000002
 21
84.15935674649495
 31
0.0
  0
LINE
  5
DF
330
1F
100
AcDbEntity
  8
0
  6
Continuous
 62
     7
100
AcDbLine
 10
-142.9500000000002
 20
82.50935674649494
 30
0.0
 11
-142.9500000000002
 21
84.00935674649504
 31
0.0
  0
LINE
  5
E0
330
1F
100
AcDbEntity
  8
0
  6
Continuous
 62
     7
100
AcDbLine
 10
-142.1500000000002
 20
84.15935674649495
 30
0.0
 11
-142.1500000000002
 21
85.15935674649515
 31
0.0
  0
LINE
  5
E1
330
1F
100
AcDbEntity
  8
0
  6
Continuous
 62
     7
100
AcDbLine
 10
-142.6500000000002
 20
84.00935674649494
 30
0.0
 11
-142.1500000000002
 21
84.00935674649504
 31
0.0
  0
LINE
  5
E2
330
1F
100
AcDbEntity
  8
0
  6
Continuous
 62
     7
100
AcDbLine
 10
-142.9500000000002
 20
84.00935674649504
 30
0.0
 11
-142.6500000000002
 21
84.00935674649494
 31
0.0
  0
LINE
  5
E3
330
1F
100
AcDbEntity
  8
0
  6
Continuous
 62
     7
100
AcDbLine
 10
-142.6500000000002
 20
84.00935674649494
 30
0.0
 11
-142.6500000000002
 21
84.15935674649495
 31
0.0
  0
LINE
  5
E4
330
1F
100
AcDbEntity
  8
0
  6
Continuous
 62
     7
100
AcDbLine
 10
-142.1500000000002
 20
84.15935674649495
 30
0.0
 11
-142.6500000000002
 21
84.15935674649495
 31
0.0
  0
LINE
  5
E5
330
1F
100
AcDbEntity
  8
0
  6
Continuous
 62
     7
100
AcDbLine
 10
-124.4000000000001
 20
83.95935674649505
 30
0.0
 11
-124.4000000000002
 21
82.35935674649505
 31
0.0
  0
LINE
  5
E6
330
1F
100
AcDbEntity
  8
0
  6
Continuous
 62
     7
100
AcDbLine
 10
-142.1500000000002
 20
83.95935674649505
 30
0.0
 11
-142.1500000000002
 21
84.00935674649504
 31
0.0
  0
LINE
  5
E7
330
1F
100
AcDbEntity
  8
0
  6
Continuous
 62
     7
100
AcDbLine
 10
-142.6000000000001
 20
82.50935674649494
 30
0.0
 11
-142.6500000000002
 21
82.50935674649494
 31
0.0
  0
LINE
  5
E8
330
1F
100
AcDbEntity
  8
0
  6
Continuous
 62
     7
100
AcDbLine
 10
-142.6500000000002
 20
82.50935674649494
 30
0.0
 11
-142.9500000000002
 21
82.50935674649494
 31
0.0
  0
LINE
  5
E9
330
1F
100
AcDbEntity
  8
0
  6
Continuous
 62
     7
100
AcDbLine
 10
-142.6500000000002
 20
82.35935674649495
 30
0.0
 11
-142.6500000000002
 21
82.50935674649494
 31
0.0
  0
LINE
  5
EA
330
1F
100
AcDbEntity
  8
0
  6
Continuous
 62
     7
100
AcDbLine
 10
-145.3000000000001
 20
86.65935674649515
 30
0.0
 11
-145.3000000000002
 21
101.859356746495
 31
0.0
  0
LINE
  5
EB
330
1F
100
AcDbEntity
  8
0
  6
Continuous
 62
     7
100
AcDbLine
 10
-117.5432879227877
 20
101.264097545071
 30
0.0
 11
-117.0679491924312
 21
101.1587174856035
 31
0.0
  0
LINE
  5
EC
330
1F
100
AcDbEntity
  8
0
  6
Continuous
 62
     7
100
AcDbLine
 10
-117.415476347652
 20
100.2963580808183
 30
0.0
 11
-117.0845236523482
 21
100.1420323045111
 31
0.0
  0
LINE
  5
ED
330
1F
100
AcDbEntity
  8
0
  6
Continuous
 62
     7
100
AcDbLine
 10
-129.1500000000001
 20
74.45935674649499
 30
0.0
 11
-129.1500000000001
 21
76.45935674649499
 31
0.0
  0
LINE
  5
EE
330
1F
100
AcDbEntity
  8
0
  6
Continuous
 62
     7
100
AcDbLine
 10
-128.6500000000001
 20
74.45935674649499
 30
0.0
 11
-121.4500000000001
 21
74.45935674649499
 31
0.0
  0
LINE
  5
EF
330
1F
100
AcDbEntity
  8
0
  6
Continuous
 62
     7
100
AcDbLine
 10
-117.5432879227877
 20
81.26409754507097
 30
0.0
 11
-117.0679491924312
 21
81.15871748560349
 31
0.0
  0
LINE
  5
F0
330
1F
100
AcDbEntity
  8
0
  6
Continuous
 62
     7
100
AcDbLine
 10
-116.8000000000001
 20
80.32329386191847
 30
0.0
 11
-116.8000000000001
 21
80.9387976094477
 31
0.0
  0
LINE
  5
F1
330
1F
100
AcDbEntity
  8
0
  6
Continuous
 62
     7
100
AcDbLine
 10
-117.7000000000001
 20
82.53566777714795
 30
0.0
 11
-117.7000000000001
 21
81.45935674649496
 31
0.0
  0
LINE
  5
F2
330
1F
100
AcDbEntity
  8
0
  6
Continuous
 62
     7
100
AcDbLine
 10
-117.7000000000001
 20
80.38304571584214
 30
0.0
 11
-117.7000000000001
 21
80.11509652341098
 31
0.0
  0
LINE
  5
F3
330
1F
100
AcDbEntity
  8
0
  6
Continuous
 62
     7
100
AcDbLine
 10
-121.8500000000002
 20
82.50935674649494
 30
0.0
 11
-122.1500000000002
 21
82.50935674649494
 31
0.0
  0
LINE
  5
F4
330
1F
100
AcDbEntity
  8
0
  6
Continuous
 62
     7
100
AcDbLine
 10
-122.1500000000002
 20
82.50935674649494
 30
0.0
 11
-122.1500000000002
 21
82.35935674649495
 31
0.0
  0
LINE
  5
F5
330
1F
100
AcDbEntity
  8
0
  6
Continuous
 62
     7
100
AcDbLine
 10
-122.2000000000001
 20
82.35935674649505
 30
0.0
 11
-122.1500000000002
 21
82.35935674649495
 31
0.0
  0
LINE
  5
F6
330
1F
100
AcDbEntity
  8
0
  6
Continuous
 62
     7
100
AcDbLine
 10
-120.9500000000001
 20
76.45935674649499
 30
0.0
 11
-120.9500000000001
 21
74.45935674649499
 31
0.0
  0
LINE
  5
F7
330
1F
100
AcDbEntity
  8
0
  6
DASHED
 62
     7
100
AcDbLine
 10
-65.39999999999992
 20
150.6411685035741
 30
0.0
 11
-65.39999999999992
 21
140.641168503574
 31
0.0
  0
LINE
  5
F8
330
1F
100
AcDbEntity
  8
0
  6
DASHED
 62
     7
100
AcDbLine
 10
-51.59999999999991
 20
181.141168503574
 30
0.0
 11
-51.59999999999991
 21
177.141168503574
 31
0.0
  0
LINE
  5
F9
330
1F
100
AcDbEntity
  8
0
  6
DASHED
 62
     7
100
AcDbLine
 10
-51.59999999999991
 20
184.141168503574
 30
0.0
 11
-51.59999999999991
 21
181.141168503574
 31
0.0
  0
LINE
  5
FA
330
1F
100
AcDbEntity
  8
0
  6
DASHED
 62
     7
100
AcDbLine
 10
-51.80000000000001
 20
181.141168503574
 30
0.0
 11
-51.59999999999991
 21
181.141168503574
 31
0.0
  0
LINE
  5
FB
330
1F
100
AcDbEntity
  8
0
  6
DASHED
 62
     7
100
AcDbLine
 10
-51.7999999999999
 20
170.841168503574
 30
0.0
 11
-51.64999999999986
 21
170.841168503574
 31
0.0
  0
LINE
  5
FC
330
1F
100
AcDbEntity
  8
0
  6
DASHED
 62
     7
100
AcDbLine
 10
-51.59999999999991
 20
175.341168503574
 30
0.0
 11
-51.59999999999991
 21
175.141168503574
 31
0.0
  0
LINE
  5
FD
330
1F
100
AcDbEntity
  8
0
  6
DASHED
 62
     7
100
AcDbLine
 10
-51.59999999999991
 20
175.141168503574
 30
0.0
 11
-50.14999999999986
 21
175.1411685035742
 31
0.0
  0
LINE
  5
FE
330
1F
100
AcDbEntity
  8
0
  6
DASHED
 62
     7
100
AcDbLine
 10
-51.59999999999991
 20
175.341168503574
 30
0.0
 11
-51.59999999999991
 21
175.641168503574
 31
0.0
  0
LINE
  5
FF
330
1F
100
AcDbEntity
  8
0
  6
DASHED
 62
     7
100
AcDbLine
 10
-51.59999999999991
 20
175.641168503574
 30
0.0
 11
-51.7999999999999
 21
175.641168503574
 31
0.0
  0
LINE
  5
100
330
1F
100
AcDbEntity
  8
0
  6
DASHED
 62
     7
100
AcDbLine
 10
-51.59999999999991
 20
175.641168503574
 30
0.0
 11
-51.59999999999991
 21
175.8654716749957
 31
0.0
  0
LINE
  5
101
330
1F
100
AcDbEntity
  8
0
  6
DASHED
 62
     7
100
AcDbLine
 10
-51.59999999999991
 20
177.141168503574
 30
0.0
 11
-51.59999999999991
 21
175.8654716749957
 31
0.0
  0
LINE
  5
102
330
1F
100
AcDbEntity
  8
0
  6
DASHED
 62
     7
100
AcDbLine
 10
-49.99999999999994
 20
177.141168503574
 30
0.0
 11
-49.99999999999989
 21
184.1411685035743
 31
0.0
  0
LINE
  5
103
330
1F
100
AcDbEntity
  8
0
  6
DASHED
 62
     7
100
AcDbLine
 10
-49.99999999999989
 20
170.1411685035743
 30
0.0
 11
-49.99999999999994
 21
171.441168503574
 31
0.0
  0
LINE
  5
104
330
1F
100
AcDbEntity
  8
0
  6
DASHED
 62
     7
100
AcDbLine
 10
-49.99999999999994
 20
171.5018088724985
 30
0.0
 11
-49.99999999999994
 21
173.641168503574
 31
0.0
  0
LINE
  5
105
330
1F
100
AcDbEntity
  8
0
  6
DASHED
 62
     7
100
AcDbLine
 10
-49.99999999999994
 20
175.141168503574
 30
0.0
 11
-49.99999999999994
 21
175.341168503574
 31
0.0
  0
LINE
  5
106
330
1F
100
AcDbEntity
  8
0
  6
DASHED
 62
     7
100
AcDbLine
 10
-49.99999999999994
 20
174.841168503574
 30
0.0
 11
-49.99999999999994
 21
175.141168503574
 31
0.0
  0
LINE
  5
107
330
1F
100
AcDbEntity
  8
0
  6
DASHED
 62
     7
100
AcDbLine
 10
-49.99999999999994
 20
174.7805281346495
 30
0.0
 11
-49.99999999999994
 21
174.841168503574
 31
0.0
  0
LINE
  5
108
330
1F
100
AcDbEntity
  8
0
  6
DASHED
 62
     7
100
AcDbLine
 10
-49.99999999999994
 20
173.641168503574
 30
0.0
 11
-49.99999999999994
 21
174.7805281346495
 31
0.0
  0
LINE
  5
109
330
1F
100
AcDbEntity
  8
0
  6
DASHED
 62
     7
100
AcDbLine
 10
-49.99999999999994
 20
171.441168503574
 30
0.0
 11
-49.99999999999994
 21
171.5018088724985
 31
0.0
  0
LINE
  5
10A
330
1F
100
AcDbEntity
  8
0
  6
DASHED
 62
     7
100
AcDbLine
 10
-49.99999999999994
 20
175.8654716749956
 30
0.0
 11
-49.99999999999994
 21
177.141168503574
 31
0.0
  0
LINE
  5
10B
330
1F
100
AcDbEntity
  8
0
  6
DASHED
 62
     7
100
AcDbLine
 10
-49.99999999999994
 20
175.341168503574
 30
0.0
 11
-49.99999999999994
 21
175.8654716749956
 31
0.0
  0
LINE
  5
10C
330
1F
100
AcDbEntity
  8
0
  6
DASHED
 62
     7
100
AcDbLine
 10
-50.14999999999986
 20
173.6411685035752
 30
0.0
 11
-49.99999999999994
 21
173.641168503574
 31
0.0
  0
LINE
  5
10D
330
1F
100
AcDbEntity
  8
0
  6
DASHED
 62
     7
100
AcDbLine
 10
-51.59999999999991
 20
184.141168503574
 30
0.0
 11
-49.99999999999989
 21
184.1411685035743
 31
0.0
  0
LINE
  5
10E
330
1F
100
AcDbEntity
  8
0
  6
DASHED
 62
     7
100
AcDbLine
 10
-49.99999999999994
 20
175.341168503574
 30
0.0
 11
-51.59999999999991
 21
175.341168503574
 31
0.0
  0
LINE
  5
10F
330
1F
100
AcDbEntity
  8
0
  6
DASHED
 62
     7
100
AcDbLine
 10
-51.59999999999991
 20
175.8654716749957
 30
0.0
 11
-49.99999999999994
 21
175.8654716749956
 31
0.0
  0
LINE
  5
110
330
1F
100
AcDbEntity
  8
0
  6
DASHED
 62
     7
100
AcDbLine
 10
-49.99999999999994
 20
177.141168503574
 30
0.0
 11
-51.59999999999991
 21
177.141168503574
 31
0.0
  0
LINE
  5
111
330
1F
100
AcDbEntity
  8
0
  6
DASHED
 62
     7
100
AcDbLine
 10
-50.14999999999986
 20
175.1411685035742
 30
0.0
 11
-49.99999999999994
 21
175.141168503574
 31
0.0
  0
LINE
  5
112
330
1F
100
AcDbEntity
  8
0
  6
DASHED
 62
     7
100
AcDbLine
 10
-51.59999999999991
 20
140.641168503574
 30
0.0
 11
-49.99999999999994
 21
140.641168503574
 31
0.0
  0
LINE
  5
113
330
1F
100
AcDbEntity
  8
0
  6
DASHED
 62
     7
100
AcDbLine
 10
-51.59999999999991
 20
143.641168503574
 30
0.0
 11
-51.59999999999991
 21
149.141168503574
 31
0.0
  0
LINE
  5
114
330
1F
100
AcDbEntity
  8
0
  6
DASHED
 62
     7
100
AcDbLine
 10
-51.59999999999991
 20
140.641168503574
 30
0.0
 11
-51.59999999999991
 21
143.641168503574
 31
0.0
  0
LINE
  5
115
330
1F
100
AcDbEntity
  8
0
  6
DASHED
 62
     7
100
AcDbLine
 10
-51.59999999999991
 20
149.141168503574
 30
0.0
 11
-51.59999999999991
 21
150.6411685035742
 31
0.0
  0
LINE
  5
116
330
1F
100
AcDbEntity
  8
0
  6
DASHED
 62
     7
100
AcDbLine
 10
-52.09999999999991
 20
143.641168503574
 30
0.0
 11
-52.09999999999991
 21
140.641168503574
 31
0.0
  0
LINE
  5
117
330
1F
100
AcDbEntity
  8
0
  6
DASHED
 62
     7
100
AcDbLine
 10
-52.09999999999991
 20
143.641168503574
 30
0.0
 11
-51.59999999999991
 21
143.641168503574
 31
0.0
  0
LINE
  5
118
330
1F
100
AcDbEntity
  8
0
  6
DASHED
 62
     7
100
AcDbLine
 10
-52.09999999999991
 20
149.141168503574
 30
0.0
 11
-51.59999999999991
 21
149.141168503574
 31
0.0
  0
LINE
  5
119
330
1F
100
AcDbEntity
  8
0
  6
DASHED
 62
     7
100
AcDbLine
 10
-52.09999999999991
 20
150.6411685035742
 30
0.0
 11
-52.09999999999991
 21
149.141168503574
 31
0.0
  0
LINE
  5
11A
330
1F
100
AcDbEntity
  8
0
  6
DASHED
 62
     7
100
AcDbLine
 10
-49.99999999999994
 20
150.6411685035747
 30
0.0
 11
-49.99999999999994
 21
150.2018088724984
 31
0.0
  0
LINE
  5
11B
330
1F
100
AcDbEntity
  8
0
  6
DASHED
 62
     7
100
AcDbLine
 10
-49.99999999999994
 20
150.2018088724984
 30
0.0
 11
-49.99999999999994
 21
140.641168503574
 31
0.0
  0
LINE
  5
11C
330
1F
100
AcDbEntity
  8
0
  6
DASHED
 62
     7
100
AcDbLine
 10
-48.2999999999999
 20
150.5152033338095
 30
0.0
 11
-48.2999999999999
 21
150.6411685035747
 31
0.0
  0
LINE
  5
11D
330
1F
100
AcDbEntity
  8
0
  6
DASHED
 62
     7
100
AcDbLine
 10
-52.09999999999991
 20
140.641168503574
 30
0.0
 11
-65.39999999999992
 21
140.641168503574
 31
0.0
  0
LINE
  5
11E
330
1F
100
AcDbEntity
  8
0
  6
Continuous
 62
     7
100
AcDbLine
 10
-72.2999999999999
 20
185.641168503574
 30
0.0
 11
-72.2999999999999
 21
170.1411685035741
 31
0.0
  0
LINE
  5
11F
330
1F
100
AcDbEntity
  8
0
  6
Continuous
 62
     7
100
AcDbLine
 10
-74.09999999999985
 20
153.6411685035741
 30
0.0
 11
-74.09999999999991
 21
167.6411685035746
 31
0.0
  0
LINE
  5
120
330
1F
100
AcDbEntity
  8
0
  6
Continuous
 62
     7
100
AcDbLine
 10
-76.09999999999974
 20
153.1411685035741
 30
0.0
 11
-76.09999999999974
 21
153.6411685035741
 31
0.0
  0
LINE
  5
121
330
1F
100
AcDbEntity
  8
0
  6
Continuous
 62
     7
100
AcDbLine
 10
-74.09999999999985
 20
153.1411685035741
 30
0.0
 11
-74.09999999999985
 21
153.6411685035741
 31
0.0
  0
LINE
  5
122
330
1F
100
AcDbEntity
  8
0
  6
Continuous
 62
     7
100
AcDbLine
 10
-74.09999999999991
 20
170.1411685035741
 30
0.0
 11
-74.09999999999991
 21
167.6411685035746
 31
0.0
  0
LINE
  5
123
330
1F
100
AcDbEntity
  8
0
  6
Continuous
 62
     7
100
AcDbLine
 10
-74.09999999999985
 20
153.6411685035741
 30
0.0
 11
-76.09999999999974
 21
153.6411685035741
 31
0.0
  0
LINE
  5
124
330
1F
100
AcDbEntity
  8
0
  6
Continuous
 62
     7
100
AcDbLine
 10
-74.09999999999991
 20
170.1411685035741
 30
0.0
 11
-72.2999999999999
 21
170.1411685035741
 31
0.0
  0
LINE
  5
125
330
1F
100
AcDbEntity
  8
0
  6
Continuous
 62
     7
100
AcDbLine
 10
-72.2999999999999
 20
170.1411685035741
 30
0.0
 11
-69.49999999999994
 21
170.1411685035741
 31
0.0
  0
LINE
  5
126
330
1F
100
AcDbEntity
  8
0
  6
Continuous
 62
     7
100
AcDbLine
 10
-69.49999999999989
 20
186.141168503574
 30
0.0
 11
-71.7999999999999
 21
186.141168503574
 31
0.0
  0
LINE
  5
127
330
1F
100
AcDbEntity
  8
0
  6
Continuous
 62
     7
100
AcDbLine
 10
-47.09999999999991
 20
150.6411685035742
 30
0.0
 11
-47.09999999999991
 21
160.1411685035747
 31
0.0
  0
LINE
  5
128
330
1F
100
AcDbEntity
  8
0
  6
Continuous
 62
     7
100
AcDbLine
 10
-44.09999999999991
 20
167.6411685035746
 30
0.0
 11
-46.09999999999991
 21
167.6411685035747
 31
0.0
  0
LINE
  5
129
330
1F
100
AcDbEntity
  8
0
  6
Continuous
 62
     7
100
AcDbLine
 10
-49.99999999999989
 20
170.1411685035743
 30
0.0
 11
-46.89999999999992
 21
170.1411685035743
 31
0.0
  0
LINE
  5
12A
330
1F
100
AcDbEntity
  8
0
  6
Continuous
 62
     7
100
AcDbLine
 10
-45.89999999999992
 20
170.1411685035743
 30
0.0
 11
-44.09999999999991
 21
170.1411685035744
 31
0.0
  0
LINE
  5
12B
330
1F
100
AcDbEntity
  8
0
  6
Continuous
 62
     7
100
AcDbLine
 10
-46.89999999999992
 20
170.1411685035743
 30
0.0
 11
-45.89999999999992
 21
170.1411685035743
 31
0.0
  0
LINE
  5
12C
330
1F
100
AcDbEntity
  8
0
  6
Continuous
 62
     7
100
AcDbLine
 10
-50.14999999999981
 20
170.1411685035743
 30
0.0
 11
-49.99999999999989
 21
170.1411685035743
 31
0.0
  0
LINE
  5
12D
330
1F
100
AcDbEntity
  8
0
  6
Continuous
 62
     7
100
AcDbLine
 10
-46.09999999999991
 20
167.6411685035747
 30
0.0
 11
-46.09999999999991
 21
150.6411685035742
 31
0.0
  0
LINE
  5
12E
330
1F
100
AcDbEntity
  8
0
  6
Continuous
 62
     7
100
AcDbLine
 10
-44.09999999999991
 20
153.6411685035741
 30
0.0
 11
-44.09999999999991
 21
167.6411685035746
 31
0.0
  0
LINE
  5
12F
330
1F
100
AcDbEntity
  8
0
  6
Continuous
 62
     7
100
AcDbLine
 10
-44.09999999999991
 20
150.6411685035743
 30
0.0
 11
-44.09999999999991
 21
153.1411685035741
 31
0.0
  0
LINE
  5
130
330
1F
100
AcDbEntity
  8
0
  6
Continuous
 62
     7
100
AcDbLine
 10
-44.09999999999991
 20
153.1411685035741
 30
0.0
 11
-44.09999999999991
 21
153.6411685035741
 31
0.0
  0
LINE
  5
131
330
1F
100
AcDbEntity
  8
0
  6
Continuous
 62
     7
100
AcDbLine
 10
-47.09999999999991
 20
150.6411685035742
 30
0.0
 11
-47.2740372591482
 21
150.6411685035742
 31
0.0
  0
LINE
  5
132
330
1F
100
AcDbEntity
  8
0
  6
Continuous
 62
     7
100
AcDbLine
 10
-76.09999999999974
 20
150.6411685035738
 30
0.0
 11
-74.09999999999985
 21
150.6411685035738
 31
0.0
  0
LINE
  5
133
330
1F
100
AcDbEntity
  8
0
  6
Continuous
 62
     7
100
AcDbLine
 10
-72.09999999999991
 20
150.6411685035738
 30
0.0
 11
-74.09999999999985
 21
150.6411685035738
 31
0.0
  0
LINE
  5
134
330
1F
100
AcDbEntity
  8
0
  6
Continuous
 62
     7
100
AcDbLine
 10
-67.09999999999991
 20
150.6411685035739
 30
0.0
 11
-67.2740372591482
 21
150.6411685035739
 31
0.0
  0
LINE
  5
135
330
1F
100
AcDbEntity
  8
0
  6
Continuous
 62
     7
100
AcDbLine
 10
-67.47371726275685
 20
150.6411685035739
 30
0.0
 11
-67.29196036289176
 21
150.6411685035739
 31
0.0
  0
LINE
  5
136
330
1F
100
AcDbEntity
  8
0
  6
Continuous
 62
     7
100
AcDbLine
 10
-67.626282737243
 20
150.6411685035739
 30
0.0
 11
-67.47371726275685
 21
150.6411685035739
 31
0.0
  0
LINE
  5
137
330
1F
100
AcDbEntity
  8
0
  6
Continuous
 62
     7
100
AcDbLine
 10
-70.72628273724297
 20
150.6411685035739
 30
0.0
 11
-70.57371726275687
 21
150.6411685035739
 31
0.0
  0
LINE
  5
138
330
1F
100
AcDbEntity
  8
0
  6
Continuous
 62
     7
100
AcDbLine
 10
-72.09999999999991
 20
150.6411685035738
 30
0.0
 11
-71.09999999999991
 21
150.6411685035739
 31
0.0
  0
LINE
  5
139
330
1F
100
AcDbEntity
  8
0
  6
Continuous
 62
     7
100
AcDbLine
 10
-70.90803963710806
 20
150.6411685035739
 30
0.0
 11
-70.92596274085162
 21
150.6411685035739
 31
0.0
  0
LINE
  5
13A
330
1F
100
AcDbEntity
  8
0
  6
Continuous
 62
     7
100
AcDbLine
 10
-71.09999999999991
 20
150.6411685035739
 30
0.0
 11
-70.92596274085162
 21
150.6411685035739
 31
0.0
  0
LINE
  5
13B
330
1F
100
AcDbEntity
  8
0
  6
Continuous
 62
     7
100
AcDbLine
 10
-76.09999999999974
 20
153.1411685035741
 30
0.0
 11
-76.09999999999974
 21
150.6411685035738
 31
0.0
  0
LINE
  5
13C
330
1F
100
AcDbEntity
  8
0
  6
Continuous
 62
     7
100
AcDbLine
 10
-74.09999999999985
 20
150.6411685035738
 30
0.0
 11
-74.09999999999985
 21
153.1411685035741
 31
0.0
  0
LINE
  5
13D
330
1F
100
AcDbEntity
  8
0
  6
Continuous
 62
     7
100
AcDbLine
 10
-52.7999999999999
 20
170.1411685035743
 30
0.0
 11
-52.80000000000007
 21
185.6411685035743
 31
0.0
  0
LINE
  5
13E
330
1F
100
AcDbEntity
  8
0
  6
Continuous
 62
     7
100
AcDbLine
 10
-51.79999999999984
 20
170.1411685035743
 30
0.0
 11
-51.80000000000001
 21
184.1411685035743
 31
0.0
  0
LINE
  5
13F
330
1F
100
AcDbEntity
  8
0
  6
Continuous
 62
     7
100
AcDbLine
 10
-51.80000000000001
 20
184.1411685035743
 30
0.0
 11
-51.7999999999999
 21
185.6411685035743
 31
0.0
  0
LINE
  5
140
330
1F
100
AcDbEntity
  8
0
  6
Continuous
 62
     7
100
AcDbLine
 10
-51.7999999999999
 20
185.6411685035743
 30
0.0
 11
-51.7999999999999
 21
186.1411685035743
 31
0.0
  0
LINE
  5
141
330
1F
100
AcDbEntity
  8
0
  6
Continuous
 62
     7
100
AcDbLine
 10
-51.80000000000001
 20
184.1411685035743
 30
0.0
 11
-51.59999999999991
 21
184.141168503574
 31
0.0
  0
LINE
  5
142
330
1F
100
AcDbEntity
  8
0
  6
Continuous
 62
     7
100
AcDbLine
 10
-51.64999999999992
 20
175.1411685035742
 30
0.0
 11
-51.64999999999992
 21
174.1411685035756
 31
0.0
  0
LINE
  5
143
330
1F
100
AcDbEntity
  8
0
  6
Continuous
 62
     7
100
AcDbLine
 10
-51.64999999999992
 20
174.1411685035756
 30
0.0
 11
-51.64999999999986
 21
170.1411685035743
 31
0.0
  0
LINE
  5
144
330
1F
100
AcDbEntity
  8
0
  6
Continuous
 62
     7
100
AcDbLine
 10
-51.64999999999992
 20
175.1411685035742
 30
0.0
 11
-51.59999999999991
 21
175.141168503574
 31
0.0
  0
LINE
  5
145
330
1F
100
AcDbEntity
  8
0
  6
Continuous
 62
     7
100
AcDbLine
 10
-51.59999999999991
 20
175.141168503574
 30
0.0
 11
-50.14999999999986
 21
175.1411685035742
 31
0.0
  0
LINE
  5
146
330
1F
100
AcDbEntity
  8
0
  6
Continuous
 62
     7
100
AcDbLine
 10
-51.7999999999999
 20
186.1411685035743
 30
0.0
 11
-52.80000000000007
 21
186.1411685035743
 31
0.0
  0
LINE
  5
147
330
1F
100
AcDbEntity
  8
0
  6
Continuous
 62
     7
100
AcDbLine
 10
-52.80000000000007
 20
185.6411685035743
 30
0.0
 11
-52.80000000000007
 21
186.1411685035743
 31
0.0
  0
LINE
  5
148
330
1F
100
AcDbEntity
  8
0
  6
Continuous
 62
     7
100
AcDbLine
 10
-52.7999999999999
 20
170.1411685035743
 30
0.0
 11
-51.79999999999984
 21
170.1411685035743
 31
0.0
  0
LINE
  5
149
330
1F
100
AcDbEntity
  8
0
  6
Continuous
 62
     7
100
AcDbLine
 10
-51.79999999999984
 20
170.1411685035743
 30
0.0
 11
-51.64999999999986
 21
170.1411685035743
 31
0.0
  0
LINE
  5
14A
330
1F
100
AcDbEntity
  8
0
  6
Continuous
 62
     7
100
AcDbLine
 10
-51.64999999999992
 20
174.1411685035756
 30
0.0
 11
-50.14999999999986
 21
174.1411685035757
 31
0.0
  0
LINE
  5
14B
330
1F
100
AcDbEntity
  8
0
  6
Continuous
 62
     7
100
AcDbLine
 10
-53.30000000000007
 20
185.6411685035743
 30
0.0
 11
-53.29999999999996
 21
170.1411685035742
 31
0.0
  0
LINE
  5
14C
330
1F
100
AcDbEntity
  8
0
  6
Continuous
 62
     7
100
AcDbLine
 10
-52.80000000000007
 20
186.1411685035743
 30
0.0
 11
-53.80000000000007
 21
186.1411685035743
 31
0.0
  0
LINE
  5
14D
330
1F
100
AcDbEntity
  8
0
  6
Continuous
 62
     7
100
AcDbLine
 10
-53.80000000000007
 20
186.1411685035743
 30
0.0
 11
-54.30000000000007
 21
186.1411685035743
 31
0.0
  0
LINE
  5
14E
330
1F
100
AcDbEntity
  8
0
  6
Continuous
 62
     7
100
AcDbLine
 10
-54.2999999999999
 20
170.1411685035743
 30
0.0
 11
-53.29999999999996
 21
170.1411685035742
 31
0.0
  0
LINE
  5
14F
330
1F
100
AcDbEntity
  8
0
  6
Continuous
 62
     7
100
AcDbLine
 10
-53.29999999999996
 20
170.1411685035742
 30
0.0
 11
-52.7999999999999
 21
170.1411685035743
 31
0.0
  0
LINE
  5
150
330
1F
100
AcDbEntity
  8
0
  6
Continuous
 62
     7
100
AcDbLine
 10
-54.30000000000007
 20
185.6411685035743
 30
0.0
 11
-54.2999999999999
 21
170.1411685035743
 31
0.0
  0
LINE
  5
151
330
1F
100
AcDbEntity
  8
0
  6
Continuous
 62
     7
100
AcDbLine
 10
-49.99999999999994
 20
177.141168503574
 30
0.0
 11
-49.99999999999989
 21
184.1411685035743
 31
0.0
  0
LINE
  5
152
330
1F
100
AcDbEntity
  8
0
  6
Continuous
 62
     7
100
AcDbLine
 10
-49.99999999999989
 20
170.1411685035743
 30
0.0
 11
-49.99999999999994
 21
171.441168503574
 31
0.0
  0
LINE
  5
153
330
1F
100
AcDbEntity
  8
0
  6
Continuous
 62
     7
100
AcDbLine
 10
-50.14999999999981
 20
170.1411685035743
 30
0.0
 11
-50.14999999999986
 21
173.6411685035752
 31
0.0
  0
LINE
  5
154
330
1F
100
AcDbEntity
  8
0
  6
Continuous
 62
     7
100
AcDbLine
 10
-49.99999999999994
 20
171.5018088724985
 30
0.0
 11
-49.99999999999994
 21
173.641168503574
 31
0.0
  0
LINE
  5
155
330
1F
100
AcDbEntity
  8
0
  6
Continuous
 62
     7
100
AcDbLine
 10
-49.99999999999994
 20
175.141168503574
 30
0.0
 11
-49.99999999999994
 21
175.341168503574
 31
0.0
  0
LINE
  5
156
330
1F
100
AcDbEntity
  8
0
  6
Continuous
 62
     7
100
AcDbLine
 10
-49.99999999999994
 20
174.841168503574
 30
0.0
 11
-49.99999999999994
 21
175.141168503574
 31
0.0
  0
LINE
  5
157
330
1F
100
AcDbEntity
  8
0
  6
Continuous
 62
     7
100
AcDbLine
 10
-49.99999999999994
 20
174.7805281346495
 30
0.0
 11
-49.99999999999994
 21
174.841168503574
 31
0.0
  0
LINE
  5
158
330
1F
100
AcDbEntity
  8
0
  6
Continuous
 62
     7
100
AcDbLine
 10
-49.99999999999994
 20
173.641168503574
 30
0.0
 11
-49.99999999999994
 21
174.7805281346495
 31
0.0
  0
LINE
  5
159
330
1F
100
AcDbEntity
  8
0
  6
Continuous
 62
     7
100
AcDbLine
 10
-49.99999999999994
 20
171.441168503574
 30
0.0
 11
-49.99999999999994
 21
171.5018088724985
 31
0.0
  0
LINE
  5
15A
330
1F
100
AcDbEntity
  8
0
  6
Continuous
 62
     7
100
AcDbLine
 10
-49.99999999999994
 20
175.8654716749956
 30
0.0
 11
-49.99999999999994
 21
177.141168503574
 31
0.0
  0
LINE
  5
15B
330
1F
100
AcDbEntity
  8
0
  6
Continuous
 62
     7
100
AcDbLine
 10
-49.99999999999994
 20
175.341168503574
 30
0.0
 11
-49.99999999999994
 21
175.8654716749956
 31
0.0
  0
LINE
  5
15C
330
1F
100
AcDbEntity
  8
0
  6
Continuous
 62
     7
100
AcDbLine
 10
-50.57371726275687
 20
160.1411685035747
 30
0.0
 11
-47.62628273724295
 21
160.1411685035747
 31
0.0
  0
LINE
  5
15D
330
1F
100
AcDbEntity
  8
0
  6
Continuous
 62
     7
100
AcDbLine
 10
-49.99999999999989
 20
186.1411685035743
 30
0.0
 11
-51.7999999999999
 21
186.1411685035743
 31
0.0
  0
LINE
  5
15E
330
1F
100
AcDbEntity
  8
0
  6
Continuous
 62
     7
100
AcDbLine
 10
-54.30000000000007
 20
186.1411685035743
 30
0.0
 11
-69.49999999999989
 21
186.141168503574
 31
0.0
  0
LINE
  5
15F
330
1F
100
AcDbEntity
  8
0
  6
Continuous
 62
     7
100
AcDbLine
 10
-69.49999999999989
 20
185.641168503574
 30
0.0
 11
-69.49999999999994
 21
170.1411685035741
 31
0.0
  0
LINE
  5
160
330
1F
100
AcDbEntity
  8
0
  6
Continuous
 62
     7
100
AcDbLine
 10
-69.49999999999989
 20
185.641168503574
 30
0.0
 11
-69.49999999999989
 21
186.141168503574
 31
0.0
  0
LINE
  5
161
330
1F
100
AcDbEntity
  8
0
  6
Continuous
 62
     7
100
AcDbLine
 10
-54.30000000000007
 20
186.1411685035743
 30
0.0
 11
-54.30000000000007
 21
185.6411685035743
 31
0.0
  0
LINE
  5
162
330
1F
100
AcDbEntity
  8
0
  6
Continuous
 62
     7
100
AcDbLine
 10
-69.49999999999994
 20
170.1411685035741
 30
0.0
 11
-54.2999999999999
 21
170.1411685035743
 31
0.0
  0
LINE
  5
163
330
1F
100
AcDbEntity
  8
0
  6
Continuous
 62
     7
100
AcDbLine
 10
-51.59999999999991
 20
184.141168503574
 30
0.0
 11
-49.99999999999989
 21
184.1411685035743
 31
0.0
  0
LINE
  5
164
330
1F
100
AcDbEntity
  8
0
  6
Continuous
 62
     7
100
AcDbLine
 10
-49.99999999999989
 20
185.6411685035743
 30
0.0
 11
-49.99999999999989
 21
186.1411685035743
 31
0.0
  0
LINE
  5
165
330
1F
100
AcDbEntity
  8
0
  6
Continuous
 62
     7
100
AcDbLine
 10
-49.99999999999989
 20
185.6411685035743
 30
0.0
 11
-49.99999999999989
 21
184.1411685035743
 31
0.0
  0
LINE
  5
166
330
1F
100
AcDbEntity
  8
0
  6
Continuous
 62
     7
100
AcDbLine
 10
-50.14999999999986
 20
173.6411685035752
 30
0.0
 11
-50.14999999999986
 21
174.1411685035757
 31
0.0
  0
LINE
  5
167
330
1F
100
AcDbEntity
  8
0
  6
Continuous
 62
     7
100
AcDbLine
 10
-51.09999999999985
 20
150.6411685035742
 30
0.0
 11
-51.09999999999985
 21
160.1411685035747
 31
0.0
  0
LINE
  5
168
330
1F
100
AcDbEntity
  8
0
  6
Continuous
 62
     7
100
AcDbLine
 10
-51.09999999999985
 20
160.1411685035747
 30
0.0
 11
-50.57371726275687
 21
160.1411685035747
 31
0.0
  0
LINE
  5
169
330
1F
100
AcDbEntity
  8
0
  6
Continuous
 62
     7
100
AcDbLine
 10
-50.72628273724297
 20
150.6411685035742
 30
0.0
 11
-50.90803963710806
 21
150.6411685035742
 31
0.0
  0
LINE
  5
16A
330
1F
100
AcDbEntity
  8
0
  6
Continuous
 62
     7
100
AcDbLine
 10
-50.72628273724297
 20
150.6411685035742
 30
0.0
 11
-50.57371726275687
 21
150.6411685035742
 31
0.0
  0
LINE
  5
16B
330
1F
100
AcDbEntity
  8
0
  6
Continuous
 62
     7
100
AcDbLine
 10
-51.09999999999985
 20
150.6411685035742
 30
0.0
 11
-50.92596274085167
 21
150.6411685035742
 31
0.0
  0
LINE
  5
16C
330
1F
100
AcDbEntity
  8
0
  6
Continuous
 62
     7
100
AcDbLine
 10
-50.90803963710806
 20
150.6411685035742
 30
0.0
 11
-50.92596274085167
 21
150.6411685035742
 31
0.0
  0
LINE
  5
16D
330
1F
100
AcDbEntity
  8
0
  6
Continuous
 62
     7
100
AcDbLine
 10
-46.89999999999992
 20
186.1411685035743
 30
0.0
 11
-49.99999999999989
 21
186.1411685035743
 31
0.0
  0
LINE
  5
16E
330
1F
100
AcDbEntity
  8
0
  6
Continuous
 62
     7
100
AcDbLine
 10
-50.14999999999986
 20
174.1411685035757
 30
0.0
 11
-50.14999999999986
 21
175.1411685035742
 31
0.0
  0
LINE
  5
16F
330
1F
100
AcDbEntity
  8
0
  6
Continuous
 62
     7
100
AcDbLine
 10
-51.64999999999986
 20
170.1411685035743
 30
0.0
 11
-50.14999999999981
 21
170.1411685035743
 31
0.0
  0
LINE
  5
170
330
1F
100
AcDbEntity
  8
0
  6
Continuous
 62
     7
100
AcDbLine
 10
-70.72628273724297
 20
150.6411685035739
 30
0.0
 11
-70.90803963710806
 21
150.6411685035739
 31
0.0
  0
LINE
  5
171
330
1F
100
AcDbEntity
  8
0
  6
Continuous
 62
     7
100
AcDbLine
 10
-70.34999999999991
 20
150.6411685035747
 30
0.0
 11
-67.84999999999991
 21
150.6411685035747
 31
0.0
  0
LINE
  5
172
330
1F
100
AcDbEntity
  8
0
  6
Continuous
 62
     7
100
AcDbLine
 10
-67.84999999999991
 20
150.6411685035747
 30
0.0
 11
-67.626282737243
 21
150.6411685035739
 31
0.0
  0
LINE
  5
173
330
1F
100
AcDbEntity
  8
0
  6
Continuous
 62
     7
100
AcDbLine
 10
-67.2740372591482
 20
150.6411685035739
 30
0.0
 11
-67.29196036289176
 21
150.6411685035739
 31
0.0
  0
LINE
  5
174
330
1F
100
AcDbEntity
  8
0
  6
Continuous
 62
     7
100
AcDbLine
 10
-72.09999999999991
 20
167.6411685035747
 30
0.0
 11
-74.09999999999991
 21
167.6411685035746
 31
0.0
  0
LINE
  5
175
330
1F
100
AcDbEntity
  8
0
  6
Continuous
 62
     7
100
AcDbLine
 10
-70.57371726275687
 20
150.6411685035739
 30
0.0
 11
-70.34999999999991
 21
150.6411685035747
 31
0.0
  0
LINE
  5
176
330
1F
100
AcDbEntity
  8
0
  6
Continuous
 62
     7
100
AcDbLine
 10
-72.09999999999991
 20
150.6411685035738
 30
0.0
 11
-72.09999999999991
 21
167.6411685035747
 31
0.0
  0
LINE
  5
177
330
1F
100
AcDbEntity
  8
0
  6
Continuous
 62
     7
100
AcDbLine
 10
-45.89999999999992
 20
170.1411685035743
 30
0.0
 11
-45.89999999999992
 21
185.6411685035743
 31
0.0
  0
LINE
  5
178
330
1F
100
AcDbEntity
  8
0
  6
Continuous
 62
     7
100
AcDbLine
 10
-44.09999999999991
 20
167.6411685035746
 30
0.0
 11
-44.09999999999991
 21
170.1411685035744
 31
0.0
  0
LINE
  5
179
330
1F
100
AcDbEntity
  8
0
  6
Continuous
 62
     7
100
AcDbLine
 10
-47.62628273724295
 20
150.6411685035742
 30
0.0
 11
-47.62628273724295
 21
160.1411685035747
 31
0.0
  0
LINE
  5
17A
330
1F
100
AcDbEntity
  8
0
  6
Continuous
 62
     7
100
AcDbLine
 10
-47.47371726275691
 20
150.6411685035742
 30
0.0
 11
-47.29196036289176
 21
150.6411685035742
 31
0.0
  0
LINE
  5
17B
330
1F
100
AcDbEntity
  8
0
  6
Continuous
 62
     7
100
AcDbLine
 10
-47.2740372591482
 20
150.6411685035742
 30
0.0
 11
-47.29196036289176
 21
150.6411685035742
 31
0.0
  0
LINE
  5
17C
330
1F
100
AcDbEntity
  8
0
  6
Continuous
 62
     7
100
AcDbLine
 10
-47.62628273724295
 20
150.6411685035742
 30
0.0
 11
-47.47371726275691
 21
150.6411685035742
 31
0.0
  0
LINE
  5
17D
330
1F
100
AcDbEntity
  8
0
  6
Continuous
 62
     7
100
AcDbLine
 10
-47.62628273724295
 20
160.1411685035747
 30
0.0
 11
-47.09999999999991
 21
160.1411685035747
 31
0.0
  0
LINE
  5
17E
330
1F
100
AcDbEntity
  8
0
  6
Continuous
 62
     7
100
AcDbLine
 10
-47.09999999999991
 20
150.6411685035742
 30
0.0
 11
-46.09999999999991
 21
150.6411685035742
 31
0.0
  0
LINE
  5
17F
330
1F
100
AcDbEntity
  8
0
  6
Continuous
 62
     7
100
AcDbLine
 10
-46.89999999999992
 20
170.1411685035743
 30
0.0
 11
-46.89999999999992
 21
185.6411685035743
 31
0.0
  0
LINE
  5
180
330
1F
100
AcDbEntity
  8
0
  6
Continuous
 62
     7
100
AcDbLine
 10
-46.89999999999992
 20
185.6411685035743
 30
0.0
 11
-46.89999999999992
 21
186.1411685035743
 31
0.0
  0
LINE
  5
181
330
1F
100
AcDbEntity
  8
0
  6
Continuous
 62
     7
100
AcDbLine
 10
-46.89999999999992
 20
186.1411685035743
 30
0.0
 11
-46.39999999999992
 21
186.1411685035743
 31
0.0
  0
LINE
  5
182
330
1F
100
AcDbEntity
  8
0
  6
Continuous
 62
     7
100
AcDbLine
 10
-42.09999999999991
 20
153.6411685035741
 30
0.0
 11
-44.09999999999991
 21
153.6411685035741
 31
0.0
  0
LINE
  5
183
330
1F
100
AcDbEntity
  8
0
  6
Continuous
 62
     7
100
AcDbLine
 10
-42.09999999999991
 20
153.1411685035741
 30
0.0
 11
-42.09999999999991
 21
150.6411685035743
 31
0.0
  0
LINE
  5
184
330
1F
100
AcDbEntity
  8
0
  6
Continuous
 62
     7
100
AcDbLine
 10
-44.09999999999991
 20
150.6411685035743
 30
0.0
 11
-42.09999999999991
 21
150.6411685035743
 31
0.0
  0
LINE
  5
185
330
1F
100
AcDbEntity
  8
0
  6
Continuous
 62
     7
100
AcDbLine
 10
-67.09999999999991
 20
150.6411685035739
 30
0.0
 11
-51.09999999999985
 21
150.6411685035742
 31
0.0
  0
LINE
  5
186
330
1F
100
AcDbEntity
  8
0
  6
Continuous
 62
     7
100
AcDbLine
 10
-44.09999999999991
 20
150.6411685035743
 30
0.0
 11
-46.09999999999991
 21
150.6411685035742
 31
0.0
  0
LINE
  5
187
330
1F
100
AcDbEntity
  8
0
  6
Continuous
 62
     7
100
AcDbLine
 10
-47.84999999999991
 20
150.6411685035747
 30
0.0
 11
-47.62628273724295
 21
150.6411685035742
 31
0.0
  0
LINE
  5
188
330
1F
100
AcDbEntity
  8
0
  6
Continuous
 62
     7
100
AcDbLine
 10
-47.84999999999991
 20
150.6411685035747
 30
0.0
 11
-50.34999999999991
 21
150.6411685035747
 31
0.0
  0
LINE
  5
189
330
1F
100
AcDbEntity
  8
0
  6
Continuous
 62
     7
100
AcDbLine
 10
-50.34999999999991
 20
150.6411685035747
 30
0.0
 11
-50.57371726275687
 21
150.6411685035742
 31
0.0
  0
LINE
  5
18A
330
1F
100
AcDbEntity
  8
0
  6
Continuous
 62
     7
100
AcDbLine
 10
-42.09999999999991
 20
153.1411685035741
 30
0.0
 11
-42.09999999999991
 21
153.6411685035741
 31
0.0
  0
LINE
  5
18B
330
1F
100
AcDbEntity
  8
0
  6
Continuous
 62
     7
100
AcDbLine
 10
-142.1500000000002
 20
176.7486464024726
 30
0.0
 11
-142.6000000000001
 21
175.8654716749954
 31
0.0
  0
LINE
  5
18C
330
1F
100
AcDbEntity
  8
0
  6
Continuous
 62
     7
100
AcDbLine
 10
-142.1500000000002
 20
175.1611685035738
 30
0.0
 11
-142.6000000000001
 21
175.3411685035737
 31
0.0
  0
LINE
  5
18D
330
1F
100
AcDbEntity
  8
0
  6
Continuous
 62
     7
100
AcDbLine
 10
-142.6000000000001
 20
175.8654716749954
 30
0.0
 11
-142.6000000000001
 21
175.3411685035737
 31
0.0
  0
LINE
  5
18E
330
1F
100
AcDbEntity
  8
0
  6
Continuous
 62
     7
100
AcDbLine
 10
-122.2000000000001
 20
175.3411685035737
 30
0.0
 11
-122.2000000000001
 21
175.8654716749954
 31
0.0
  0
LINE
  5
18F
330
1F
100
AcDbEntity
  8
0
  6
Continuous
 62
     7
100
AcDbLine
 10
-122.2000000000001
 20
175.8654716749954
 30
0.0
 11
-122.6500000000002
 21
176.7486464024728
 31
0.0
  0
LINE
  5
190
330
1F
100
AcDbEntity
  8
0
  6
Continuous
 62
     7
100
AcDbLine
 10
-122.2000000000001
 20
175.3411685035737
 30
0.0
 11
-122.6500000000002
 21
175.1611685035737
 31
0.0
  0
LINE
  5
191
330
1F
100
AcDbEntity
  8
0
  6
DASHED
 62
     7
100
AcDbLine
 10
-122.8500000000001
 20
140.6411685035737
 30
0.0
 11
-141.9500000000001
 21
140.6411685035737
 31
0.0
  0
LINE
  5
192
330
1F
100
AcDbEntity
  8
0
  6
DASHED
 62
     7
100
AcDbLine
 10
-137.6000000000001
 20
150.5152033338092
 30
0.0
 11
-137.6000000000001
 21
150.6411685035739
 31
0.0
  0
LINE
  5
193
330
1F
100
AcDbEntity
  8
0
  6
DASHED
 62
     7
100
AcDbLine
 10
-137.6000000000001
 20
150.2018088724982
 30
0.0
 11
-137.6000000000001
 21
150.5152033338092
 31
0.0
  0
LINE
  5
194
330
1F
100
AcDbEntity
  8
0
  6
DASHED
 62
     7
100
AcDbLine
 10
-126.3000000000001
 20
150.5152033338092
 30
0.0
 11
-126.3000000000001
 21
150.6411685035739
 31
0.0
  0
LINE
  5
195
330
1F
100
AcDbEntity
  8
0
  6
DASHED
 62
     7
100
AcDbLine
 10
-126.3000000000001
 20
150.2018088724982
 30
0.0
 11
-126.3000000000001
 21
150.5152033338092
 31
0.0
  0
LINE
  5
196
330
1F
100
AcDbEntity
  8
0
  6
DASHED
 62
     7
100
AcDbLine
 10
-127.2000000000001
 20
150.5152033338092
 30
0.0
 11
-127.2000000000001
 21
150.2018088724982
 31
0.0
  0
LINE
  5
197
330
1F
100
AcDbEntity
  8
0
  6
DASHED
 62
     7
100
AcDbLine
 10
-127.2000000000001
 20
150.5152033338092
 30
0.0
 11
-127.2000000000001
 21
150.6411685035739
 31
0.0
  0
LINE
  5
198
330
1F
100
AcDbEntity
  8
0
  6
DASHED
 62
     7
100
AcDbLine
 10
-122.8500000000001
 20
140.6411685035737
 30
0.0
 11
-122.8500000000001
 21
150.6411685035739
 31
0.0
  0
LINE
  5
199
330
1F
100
AcDbEntity
  8
0
  6
DASHED
 62
     7
100
AcDbLine
 10
-138.5000000000001
 20
150.5152033338092
 30
0.0
 11
-138.5000000000001
 21
150.6411685035739
 31
0.0
  0
LINE
  5
19A
330
1F
100
AcDbEntity
  8
0
  6
DASHED
 62
     7
100
AcDbLine
 10
-138.5000000000001
 20
150.5152033338092
 30
0.0
 11
-138.5000000000001
 21
150.2018088724982
 31
0.0
  0
LINE
  5
19B
330
1F
100
AcDbEntity
  8
0
  6
DASHED
 62
     7
100
AcDbLine
 10
-141.9500000000001
 20
150.6411685035739
 30
0.0
 11
-141.9500000000001
 21
140.6411685035737
 31
0.0
  0
LINE
  5
19C
330
1F
100
AcDbEntity
  8
0
  6
Continuous
 62
     7
100
AcDbLine
 10
-119.7500000000001
 20
150.641168503574
 30
0.0
 11
-119.7500000000001
 21
167.6411685035739
 31
0.0
  0
LINE
  5
19D
330
1F
100
AcDbEntity
  8
0
  6
Continuous
 62
     7
100
AcDbLine
 10
-117.7000000000001
 20
150.641168503574
 30
0.0
 11
-119.7500000000001
 21
150.641168503574
 31
0.0
  0
LINE
  5
19E
330
1F
100
AcDbEntity
  8
0
  6
Continuous
 62
     7
100
AcDbLine
 10
-130.3500000000001
 20
150.641168503574
 30
0.0
 11
-130.3500000000001
 21
167.6411685035744
 31
0.0
  0
LINE
  5
19F
330
1F
100
AcDbEntity
  8
0
  6
Continuous
 62
     7
100
AcDbLine
 10
-129.1500000000002
 20
153.1411685035739
 30
0.0
 11
-129.1500000000002
 21
150.641168503574
 31
0.0
  0
LINE
  5
1A0
330
1F
100
AcDbEntity
  8
0
  6
Continuous
 62
     7
100
AcDbLine
 10
-120.9500000000001
 20
150.641168503574
 30
0.0
 11
-120.9500000000001
 21
153.1411685035739
 31
0.0
  0
LINE
  5
1A1
330
1F
100
AcDbEntity
  8
0
  6
Continuous
 62
     7
100
AcDbLine
 10
-128.6500000000002
 20
153.6411685035739
 30
0.0
 11
-121.4500000000001
 21
153.6411685035739
 31
0.0
  0
LINE
  5
1A2
330
1F
100
AcDbEntity
  8
0
  6
Continuous
 62
     7
100
AcDbLine
 10
-119.5000000000002
 20
170.141168503574
 30
0.0
 11
-119.5000000000001
 21
185.641168503574
 31
0.0
  0
LINE
  5
1A3
330
1F
100
AcDbEntity
  8
0
  6
Continuous
 62
     7
100
AcDbLine
 10
-116.8000000000001
 20
159.1411685035738
 30
0.0
 11
-116.8000000000001
 21
150.6411685035739
 31
0.0
  0
LINE
  5
1A4
330
1F
100
AcDbEntity
  8
0
  6
Continuous
 62
     7
100
AcDbLine
 10
-120.5000000000002
 20
170.141168503574
 30
0.0
 11
-120.5000000000001
 21
185.641168503574
 31
0.0
  0
LINE
  5
1A5
330
1F
100
AcDbEntity
  8
0
  6
Continuous
 62
     7
100
AcDbLine
 10
-122.1500000000002
 20
186.141168503574
 30
0.0
 11
-122.1500000000002
 21
185.641168503574
 31
0.0
  0
LINE
  5
1A6
330
1F
100
AcDbEntity
  8
0
  6
Continuous
 62
     7
100
AcDbLine
 10
-117.7000000000001
 20
170.1411685035741
 30
0.0
 11
-119.5000000000002
 21
170.141168503574
 31
0.0
  0
LINE
  5
1A7
330
1F
100
AcDbEntity
  8
0
  6
Continuous
 62
     7
100
AcDbLine
 10
-119.5000000000002
 20
170.141168503574
 30
0.0
 11
-120.5000000000002
 21
170.141168503574
 31
0.0
  0
LINE
  5
1A8
330
1F
100
AcDbEntity
  8
0
  6
Continuous
 62
     7
100
AcDbLine
 10
-120.5000000000001
 20
186.141168503574
 30
0.0
 11
-120.0000000000001
 21
186.141168503574
 31
0.0
  0
LINE
  5
1A9
330
1F
100
AcDbEntity
  8
0
  6
Continuous
 62
     7
100
AcDbLine
 10
-122.1500000000002
 20
186.141168503574
 30
0.0
 11
-120.5000000000001
 21
186.141168503574
 31
0.0
  0
LINE
  5
1AA
330
1F
100
AcDbEntity
  8
0
  6
Continuous
 62
     7
100
AcDbLine
 10
-145.0500000000001
 20
167.6411685035744
 30
0.0
 11
-147.1000000000001
 21
167.6411685035744
 31
0.0
  0
LINE
  5
1AB
330
1F
100
AcDbEntity
  8
0
  6
Continuous
 62
     7
100
AcDbLine
 10
-145.0500000000001
 20
150.641168503574
 30
0.0
 11
-147.1000000000001
 21
150.6411685035736
 31
0.0
  0
LINE
  5
1AC
330
1F
100
AcDbEntity
  8
0
  6
Continuous
 62
     7
100
AcDbLine
 10
-145.3000000000002
 20
185.641168503574
 30
0.0
 11
-145.3000000000002
 21
170.141168503574
 31
0.0
  0
LINE
  5
1AD
330
1F
100
AcDbEntity
  8
0
  6
Continuous
 62
     7
100
AcDbLine
 10
-142.6500000000002
 20
170.141168503574
 30
0.0
 11
-142.6500000000002
 21
173.6411685035744
 31
0.0
  0
LINE
  5
1AE
330
1F
100
AcDbEntity
  8
0
  6
Continuous
 62
     7
100
AcDbLine
 10
-144.3000000000002
 20
170.141168503574
 30
0.0
 11
-145.3000000000002
 21
170.141168503574
 31
0.0
  0
LINE
  5
1AF
330
1F
100
AcDbEntity
  8
0
  6
Continuous
 62
     7
100
AcDbLine
 10
-143.9500000000002
 20
170.1411685035741
 30
0.0
 11
-144.3000000000002
 21
170.141168503574
 31
0.0
  0
LINE
  5
1B0
330
1F
100
AcDbEntity
  8
0
  6
Continuous
 62
     7
100
AcDbLine
 10
-142.6500000000002
 20
170.141168503574
 30
0.0
 11
-143.9500000000002
 21
170.1411685035741
 31
0.0
  0
LINE
  5
1B1
330
1F
100
AcDbEntity
  8
0
  6
Continuous
 62
     7
100
AcDbLine
 10
-142.1500000000002
 20
170.1411685035741
 30
0.0
 11
-142.6500000000002
 21
170.141168503574
 31
0.0
  0
LINE
  5
1B2
330
1F
100
AcDbEntity
  8
0
  6
Continuous
 62
     7
100
AcDbLine
 10
-143.9500000000002
 20
174.141168503574
 30
0.0
 11
-143.9500000000002
 21
170.1411685035741
 31
0.0
  0
LINE
  5
1B3
330
1F
100
AcDbEntity
  8
0
  6
Continuous
 62
     7
100
AcDbLine
 10
-142.1500000000002
 20
174.1411685035745
 30
0.0
 11
-142.1500000000002
 21
175.141168503574
 31
0.0
  0
LINE
  5
1B4
330
1F
100
AcDbEntity
  8
0
  6
Continuous
 62
     7
100
AcDbLine
 10
-142.1500000000002
 20
175.141168503574
 30
0.0
 11
-142.1500000000002
 21
185.641168503574
 31
0.0
  0
LINE
  5
1B5
330
1F
100
AcDbEntity
  8
0
  6
Continuous
 62
     7
100
AcDbLine
 10
-142.6500000000002
 20
175.141168503574
 30
0.0
 11
-142.6500000000002
 21
185.641168503574
 31
0.0
  0
LINE
  5
1B6
330
1F
100
AcDbEntity
  8
0
  6
Continuous
 62
     7
100
AcDbLine
 10
-144.3000000000002
 20
185.641168503574
 30
0.0
 11
-144.3000000000002
 21
170.141168503574
 31
0.0
  0
LINE
  5
1B7
330
1F
100
AcDbEntity
  8
0
  6
Continuous
 62
     7
100
AcDbLine
 10
-142.1500000000002
 20
174.1411685035745
 30
0.0
 11
-142.6500000000002
 21
173.6411685035744
 31
0.0
  0
LINE
  5
1B8
330
1F
100
AcDbEntity
  8
0
  6
Continuous
 62
     7
100
AcDbLine
 10
-142.1500000000002
 20
170.1411685035741
 30
0.0
 11
-142.1500000000002
 21
174.1411685035745
 31
0.0
  0
LINE
  5
1B9
330
1F
100
AcDbEntity
  8
0
  6
Continuous
 62
     7
100
AcDbLine
 10
-142.6500000000002
 20
185.641168503574
 30
0.0
 11
-142.6500000000002
 21
186.141168503574
 31
0.0
  0
LINE
  5
1BA
330
1F
100
AcDbEntity
  8
0
  6
Continuous
 62
     7
100
AcDbLine
 10
-144.3000000000002
 20
185.641168503574
 30
0.0
 11
-144.3000000000002
 21
186.141168503574
 31
0.0
  0
LINE
  5
1BB
330
1F
100
AcDbEntity
  8
0
  6
Continuous
 62
     7
100
AcDbLine
 10
-142.1500000000002
 20
175.141168503574
 30
0.0
 11
-142.9500000000002
 21
175.141168503574
 31
0.0
  0
LINE
  5
1BC
330
1F
100
AcDbEntity
  8
0
  6
Continuous
 62
     7
100
AcDbLine
 10
-144.3000000000002
 20
186.141168503574
 30
0.0
 11
-142.6500000000002
 21
186.141168503574
 31
0.0
  0
LINE
  5
1BD
330
1F
100
AcDbEntity
  8
0
  6
Continuous
 62
     7
100
AcDbLine
 10
-141.6500000000002
 20
186.141168503574
 30
0.0
 11
-142.6500000000002
 21
186.141168503574
 31
0.0
  0
LINE
  5
1BE
330
1F
100
AcDbEntity
  8
0
  6
Continuous
 62
     7
100
AcDbLine
 10
-122.1500000000002
 20
173.6411685035749
 30
0.0
 11
-122.6500000000002
 21
174.1411685035754
 31
0.0
  0
LINE
  5
1BF
330
1F
100
AcDbEntity
  8
0
  6
Continuous
 62
     7
100
AcDbLine
 10
-117.7000000000001
 20
167.6411685035739
 30
0.0
 11
-117.7000000000001
 21
170.1411685035741
 31
0.0
  0
LINE
  5
1C0
330
1F
100
AcDbEntity
  8
0
  6
Continuous
 62
     7
100
AcDbLine
 10
-117.0679491924312
 20
160.1411685035739
 30
0.0
 11
-116.8627367192449
 21
159.3753051272954
 31
0.0
  0
LINE
  5
1C1
330
1F
100
AcDbEntity
  8
0
  6
Continuous
 62
     7
100
AcDbLine
 10
-116.8000000000001
 20
159.1411685035738
 30
0.0
 11
-116.8627367192449
 21
159.3753051272954
 31
0.0
  0
LINE
  5
1C2
330
1F
100
AcDbEntity
  8
0
  6
Continuous
 62
     7
100
AcDbLine
 10
-117.7000000000001
 20
160.1411685035739
 30
0.0
 11
-117.0679491924312
 21
160.1411685035739
 31
0.0
  0
LINE
  5
1C3
330
1F
100
AcDbEntity
  8
0
  6
Continuous
 62
     7
100
AcDbLine
 10
-122.1500000000002
 20
170.141168503574
 30
0.0
 11
-122.1500000000002
 21
173.6411685035749
 31
0.0
  0
LINE
  5
1C4
330
1F
100
AcDbEntity
  8
0
  6
Continuous
 62
     7
100
AcDbLine
 10
-120.5000000000002
 20
170.141168503574
 30
0.0
 11
-120.8500000000002
 21
170.141168503574
 31
0.0
  0
LINE
  5
1C5
330
1F
100
AcDbEntity
  8
0
  6
Continuous
 62
     7
100
AcDbLine
 10
-120.8500000000002
 20
170.141168503574
 30
0.0
 11
-122.1500000000002
 21
170.141168503574
 31
0.0
  0
LINE
  5
1C6
330
1F
100
AcDbEntity
  8
0
  6
Continuous
 62
     7
100
AcDbLine
 10
-120.8500000000002
 20
170.141168503574
 30
0.0
 11
-120.8500000000002
 21
174.141168503574
 31
0.0
  0
LINE
  5
1C7
330
1F
100
AcDbEntity
  8
0
  6
Continuous
 62
     7
100
AcDbLine
 10
-121.8500000000002
 20
175.141168503574
 30
0.0
 11
-122.6500000000002
 21
175.141168503574
 31
0.0
  0
LINE
  5
1C8
330
1F
100
AcDbEntity
  8
0
  6
Continuous
 62
     7
100
AcDbLine
 10
-122.6500000000002
 20
174.1411685035754
 30
0.0
 11
-122.6500000000002
 21
175.141168503574
 31
0.0
  0
LINE
  5
1C9
330
1F
100
AcDbEntity
  8
0
  6
Continuous
 62
     7
100
AcDbLine
 10
-122.1500000000002
 20
170.141168503574
 30
0.0
 11
-122.6500000000002
 21
170.141168503574
 31
0.0
  0
LINE
  5
1CA
330
1F
100
AcDbEntity
  8
0
  6
Continuous
 62
     7
100
AcDbLine
 10
-122.6500000000002
 20
170.141168503574
 30
0.0
 11
-122.6500000000002
 21
174.1411685035754
 31
0.0
  0
LINE
  5
1CB
330
1F
100
AcDbEntity
  8
0
  6
Continuous
 62
     7
100
AcDbLine
 10
-122.1500000000002
 20
185.641168503574
 30
0.0
 11
-122.1500000000002
 21
175.141168503574
 31
0.0
  0
LINE
  5
1CC
330
1F
100
AcDbEntity
  8
0
  6
Continuous
 62
     7
100
AcDbLine
 10
-122.6500000000002
 20
175.141168503574
 30
0.0
 11
-122.6500000000002
 21
185.641168503574
 31
0.0
  0
LINE
  5
1CD
330
1F
100
AcDbEntity
  8
0
  6
Continuous
 62
     7
100
AcDbLine
 10
-123.6500000000002
 20
185.641168503574
 30
0.0
 11
-123.6500000000002
 21
170.1411685035741
 31
0.0
  0
LINE
  5
1CE
330
1F
100
AcDbEntity
  8
0
  6
Continuous
 62
     7
100
AcDbLine
 10
-130.8999999999999
 20
167.641168503574
 30
0.0
 11
-133.9000000000002
 21
167.641168503574
 31
0.0
  0
LINE
  5
1CF
330
1F
100
AcDbEntity
  8
0
  6
Continuous
 62
     7
100
AcDbLine
 10
-133.9000000000002
 20
167.641168503574
 30
0.0
 11
-134.4000000000002
 21
167.641168503574
 31
0.0
  0
LINE
  5
1D0
330
1F
100
AcDbEntity
  8
0
  6
Continuous
 62
     7
100
AcDbLine
 10
-134.4000000000002
 20
167.641168503574
 30
0.0
 11
-134.4500000000001
 21
167.6411685035744
 31
0.0
  0
LINE
  5
1D1
330
1F
100
AcDbEntity
  8
0
  6
Continuous
 62
     7
100
AcDbLine
 10
-130.3999999999999
 20
167.641168503574
 30
0.0
 11
-130.8999999999999
 21
167.641168503574
 31
0.0
  0
LINE
  5
1D2
330
1F
100
AcDbEntity
  8
0
  6
Continuous
 62
     7
100
AcDbLine
 10
-130.3500000000001
 20
167.6411685035744
 30
0.0
 11
-130.3999999999999
 21
167.641168503574
 31
0.0
  0
LINE
  5
1D3
330
1F
100
AcDbEntity
  8
0
  6
Continuous
 62
     7
100
AcDbLine
 10
-141.1500000000002
 20
186.141168503574
 30
0.0
 11
-141.1500000000002
 21
185.641168503574
 31
0.0
  0
LINE
  5
1D4
330
1F
100
AcDbEntity
  8
0
  6
Continuous
 62
     7
100
AcDbLine
 10
-123.6500000000002
 20
185.641168503574
 30
0.0
 11
-123.6500000000002
 21
186.141168503574
 31
0.0
  0
LINE
  5
1D5
330
1F
100
AcDbEntity
  8
0
  6
Continuous
 62
     7
100
AcDbLine
 10
-123.1500000000002
 20
186.141168503574
 30
0.0
 11
-123.6500000000002
 21
186.141168503574
 31
0.0
  0
LINE
  5
1D6
330
1F
100
AcDbEntity
  8
0
  6
Continuous
 62
     7
100
AcDbLine
 10
-141.1500000000002
 20
186.141168503574
 30
0.0
 11
-123.6500000000002
 21
186.141168503574
 31
0.0
  0
LINE
  5
1D7
330
1F
100
AcDbEntity
  8
0
  6
Continuous
 62
     7
100
AcDbLine
 10
-117.7000000000001
 20
150.641168503574
 30
0.0
 11
-117.7000000000001
 21
159.1411685035739
 31
0.0
  0
LINE
  5
1D8
330
1F
100
AcDbEntity
  8
0
  6
Continuous
 62
     7
100
AcDbLine
 10
-117.415476347652
 20
150.641168503574
 30
0.0
 11
-117.0845236523483
 21
150.6411685035739
 31
0.0
  0
LINE
  5
1D9
330
1F
100
AcDbEntity
  8
0
  6
Continuous
 62
     7
100
AcDbLine
 10
-117.7000000000001
 20
150.641168503574
 30
0.0
 11
-117.415476347652
 21
150.641168503574
 31
0.0
  0
LINE
  5
1DA
330
1F
100
AcDbEntity
  8
0
  6
Continuous
 62
     7
100
AcDbLine
 10
-123.1500000000002
 20
186.141168503574
 30
0.0
 11
-122.1500000000002
 21
186.141168503574
 31
0.0
  0
LINE
  5
1DB
330
1F
100
AcDbEntity
  8
0
  6
Continuous
 62
     7
100
AcDbLine
 10
-120.5000000000001
 20
186.141168503574
 30
0.0
 11
-120.5000000000001
 21
185.641168503574
 31
0.0
  0
LINE
  5
1DC
330
1F
100
AcDbEntity
  8
0
  6
Continuous
 62
     7
100
AcDbLine
 10
-141.1500000000002
 20
170.1411685035741
 30
0.0
 11
-141.1500000000002
 21
185.641168503574
 31
0.0
  0
LINE
  5
1DD
330
1F
100
AcDbEntity
  8
0
  6
Continuous
 62
     7
100
AcDbLine
 10
-141.6500000000002
 20
186.141168503574
 30
0.0
 11
-141.1500000000002
 21
186.141168503574
 31
0.0
  0
LINE
  5
1DE
330
1F
100
AcDbEntity
  8
0
  6
Continuous
 62
     7
100
AcDbLine
 10
-123.6500000000002
 20
170.1411685035741
 30
0.0
 11
-141.1500000000002
 21
170.1411685035741
 31
0.0
  0
LINE
  5
1DF
330
1F
100
AcDbEntity
  8
0
  6
Continuous
 62
     7
100
AcDbLine
 10
-117.7000000000001
 20
159.1411685035739
 30
0.0
 11
-117.7000000000001
 21
160.1411685035739
 31
0.0
  0
LINE
  5
1E0
330
1F
100
AcDbEntity
  8
0
  6
Continuous
 62
     7
100
AcDbLine
 10
-117.7000000000001
 20
160.1411685035739
 30
0.0
 11
-117.7000000000001
 21
167.6411685035739
 31
0.0
  0
LINE
  5
1E1
330
1F
100
AcDbEntity
  8
0
  6
Continuous
 62
     7
100
AcDbLine
 10
-117.7000000000001
 20
167.6411685035739
 30
0.0
 11
-119.7500000000001
 21
167.6411685035739
 31
0.0
  0
LINE
  5
1E2
330
1F
100
AcDbEntity
  8
0
  6
Continuous
 62
     7
100
AcDbLine
 10
-122.6500000000002
 20
170.141168503574
 30
0.0
 11
-123.6500000000002
 21
170.1411685035741
 31
0.0
  0
LINE
  5
1E3
330
1F
100
AcDbEntity
  8
0
  6
Continuous
 62
     7
100
AcDbLine
 10
-145.3000000000002
 20
170.141168503574
 30
0.0
 11
-147.1000000000001
 21
170.1411685035741
 31
0.0
  0
LINE
  5
1E4
330
1F
100
AcDbEntity
  8
0
  6
Continuous
 62
     7
100
AcDbLine
 10
-141.1500000000002
 20
170.1411685035741
 30
0.0
 11
-142.1500000000002
 21
170.1411685035741
 31
0.0
  0
LINE
  5
1E5
330
1F
100
AcDbEntity
  8
0
  6
Continuous
 62
     7
100
AcDbLine
 10
-120.9500000000001
 20
150.641168503574
 30
0.0
 11
-129.1500000000002
 21
150.641168503574
 31
0.0
  0
LINE
  5
1E6
330
1F
100
AcDbEntity
  8
0
  6
Continuous
 62
     7
100
AcDbLine
 10
-116.8000000000001
 20
150.6411685035739
 30
0.0
 11
-117.0845236523483
 21
150.6411685035739
 31
0.0
  0
LINE
  5
1E7
330
1F
100
AcDbEntity
  8
0
  6
Continuous
 62
     7
100
AcDbLine
 10
-130.3500000000001
 20
150.641168503574
 30
0.0
 11
-134.4500000000001
 21
150.641168503574
 31
0.0
  0
LINE
  5
1E8
330
1F
100
AcDbEntity
  8
0
  6
Continuous
 62
     7
100
AcDbLine
 10
-130.3500000000001
 20
150.641168503574
 30
0.0
 11
-129.1500000000002
 21
150.641168503574
 31
0.0
  0
LINE
  5
1E9
330
1F
100
AcDbEntity
  8
0
  6
Continuous
 62
     7
100
AcDbLine
 10
-135.6500000000002
 20
150.641168503574
 30
0.0
 11
-134.4500000000001
 21
150.641168503574
 31
0.0
  0
LINE
  5
1EA
330
1F
100
AcDbEntity
  8
0
  6
Continuous
 62
     7
100
AcDbLine
 10
-120.9500000000001
 20
150.641168503574
 30
0.0
 11
-119.7500000000001
 21
150.641168503574
 31
0.0
  0
LINE
  5
1EB
330
1F
100
AcDbEntity
  8
0
  6
Continuous
 62
     7
100
AcDbLine
 10
-135.6500000000002
 20
150.641168503574
 30
0.0
 11
-143.8500000000001
 21
150.641168503574
 31
0.0
  0
LINE
  5
1EC
330
1F
100
AcDbEntity
  8
0
  6
Continuous
 62
     7
100
AcDbLine
 10
-145.0500000000001
 20
150.641168503574
 30
0.0
 11
-143.8500000000001
 21
150.641168503574
 31
0.0
  0
LINE
  5
1ED
330
1F
100
AcDbEntity
  8
0
  6
Continuous
 62
     7
100
AcDbLine
 10
-144.3000000000002
 20
186.141168503574
 30
0.0
 11
-144.8000000000002
 21
186.141168503574
 31
0.0
  0
LINE
  5
1EE
330
1F
100
AcDbEntity
  8
0
  6
Continuous
 62
     7
100
AcDbLine
 10
-147.1000000000001
 20
167.6411685035744
 30
0.0
 11
-147.1000000000001
 21
170.1411685035741
 31
0.0
  0
LINE
  5
1EF
330
1F
100
AcDbEntity
  8
0
  6
Continuous
 62
     7
100
AcDbLine
 10
-147.1000000000001
 20
167.6411685035744
 30
0.0
 11
-147.1000000000001
 21
150.6411685035736
 31
0.0
  0
LINE
  5
1F0
330
1F
100
AcDbEntity
  8
0
  6
Continuous
 62
     7
100
AcDbLine
 10
-134.4500000000001
 20
150.641168503574
 30
0.0
 11
-134.4500000000001
 21
167.6411685035744
 31
0.0
  0
LINE
  5
1F1
330
1F
100
AcDbEntity
  8
0
  6
Continuous
 62
     7
100
AcDbLine
 10
-145.0500000000001
 20
150.641168503574
 30
0.0
 11
-145.0500000000001
 21
167.6411685035744
 31
0.0
  0
LINE
  5
1F2
330
1F
100
AcDbEntity
  8
0
  6
Continuous
 62
     7
100
AcDbLine
 10
-143.3500000000001
 20
153.6411685035739
 30
0.0
 11
-136.1500000000002
 21
153.6411685035739
 31
0.0
  0
LINE
  5
1F3
330
1F
100
AcDbEntity
  8
0
  6
Continuous
 62
     7
100
AcDbLine
 10
-143.8500000000001
 20
153.1411685035739
 30
0.0
 11
-143.8500000000001
 21
150.641168503574
 31
0.0
  0
LINE
  5
1F4
330
1F
100
AcDbEntity
  8
0
  6
Continuous
 62
     7
100
AcDbLine
 10
-135.6500000000002
 20
150.641168503574
 30
0.0
 11
-135.6500000000002
 21
153.1411685035739
 31
0.0
  0
LINE
  5
1F5
330
1F
100
AcDbEntity
  8
0
  6
DASHED
 62
     7
100
AcDbLine
 10
-140.4000000000002
 20
223.3105516132644
 30
0.0
 11
-140.4000000000001
 21
221.7105516132644
 31
0.0
  0
LINE
  5
1F6
330
1F
100
AcDbEntity
  8
0
  6
DASHED
 62
     7
100
AcDbLine
 10
-124.4000000000001
 20
221.7105516132644
 30
0.0
 11
-124.4000000000002
 21
223.3105516132644
 31
0.0
  0
LINE
  5
1F7
330
1F
100
AcDbEntity
  8
0
  6
DASHED
 62
     7
100
AcDbLine
 10
-124.4000000000001
 20
221.7105516132644
 30
0.0
 11
-140.4000000000001
 21
221.7105516132644
 31
0.0
  0
LINE
  5
1F8
330
1F
100
AcDbEntity
  8
0
  6
DASHED
 62
     7
100
AcDbLine
 10
-126.4000000000001
 20
224.5605516132644
 30
0.0
 11
-138.4000000000001
 21
224.5605516132644
 31
0.0
  0
LINE
  5
1F9
330
1F
100
AcDbEntity
  8
0
  6
DASHED
 62
     7
100
AcDbLine
 10
-126.3000000000001
 20
237.1105516132644
 30
0.0
 11
-126.3000000000001
 21
238.8105516132644
 31
0.0
  0
LINE
  5
1FA
330
1F
100
AcDbEntity
  8
0
  6
DASHED
 62
     7
100
AcDbLine
 10
-125.3497558672045
 20
238.8105516132644
 30
0.0
 11
-125.0500000000001
 21
237.1105516132644
 31
0.0
  0
LINE
  5
1FB
330
1F
100
AcDbEntity
  8
0
  6
DASHED
 62
     7
100
AcDbLine
 10
-124.4000000000002
 20
235.5105516132644
 30
0.0
 11
-124.4000000000002
 21
235.3105516132643
 31
0.0
  0
LINE
  5
1FC
330
1F
100
AcDbEntity
  8
0
  6
DASHED
 62
     7
100
AcDbLine
 10
-124.4000000000002
 20
233.8105516132644
 30
0.0
 11
-124.4000000000002
 21
223.3105516132644
 31
0.0
  0
LINE
  5
1FD
330
1F
100
AcDbEntity
  8
0
  6
DASHED
 62
     7
100
AcDbLine
 10
-124.4000000000002
 20
233.8105516132644
 30
0.0
 11
-124.4000000000001
 21
234.5105516132644
 31
0.0
  0
LINE
  5
1FE
330
1F
100
AcDbEntity
  8
0
  6
DASHED
 62
     7
100
AcDbLine
 10
-124.4000000000001
 20
235.0105516132644
 30
0.0
 11
-124.4000000000002
 21
235.3105516132643
 31
0.0
  0
LINE
  5
1FF
330
1F
100
AcDbEntity
  8
0
  6
DASHED
 62
     7
100
AcDbLine
 10
-124.4000000000001
 20
234.5105516132644
 30
0.0
 11
-124.4000000000001
 21
235.0105516132644
 31
0.0
  0
LINE
  5
200
330
1F
100
AcDbEntity
  8
0
  6
DASHED
 62
     7
100
AcDbLine
 10
-124.4000000000002
 20
237.1105516132644
 30
0.0
 11
-125.0500000000001
 21
237.1105516132644
 31
0.0
  0
LINE
  5
201
330
1F
100
AcDbEntity
  8
0
  6
DASHED
 62
     7
100
AcDbLine
 10
-126.4000000000001
 20
231.4605516132644
 30
0.0
 11
-126.4000000000001
 21
224.5605516132644
 31
0.0
  0
LINE
  5
202
330
1F
100
AcDbEntity
  8
0
  6
DASHED
 62
     7
100
AcDbLine
 10
-125.0500000000001
 20
237.1105516132644
 30
0.0
 11
-126.3000000000001
 21
237.1105516132644
 31
0.0
  0
LINE
  5
203
330
1F
100
AcDbEntity
  8
0
  6
DASHED
 62
     7
100
AcDbLine
 10
-125.3497558672045
 20
238.8105516132644
 30
0.0
 11
-126.3000000000001
 21
238.8105516132644
 31
0.0
  0
LINE
  5
204
330
1F
100
AcDbEntity
  8
0
  6
DASHED
 62
     7
100
AcDbLine
 10
-136.6497558672045
 20
238.8105516132644
 30
0.0
 11
-136.3500000000001
 21
237.1105516132644
 31
0.0
  0
LINE
  5
205
330
1F
100
AcDbEntity
  8
0
  6
DASHED
 62
     7
100
AcDbLine
 10
-124.4000000000001
 20
235.0105516132644
 30
0.0
 11
-140.4000000000001
 21
235.0105516132644
 31
0.0
  0
LINE
  5
206
330
1F
100
AcDbEntity
  8
0
  6
DASHED
 62
     7
100
AcDbLine
 10
-128.1502441327957
 20
238.8105516132644
 30
0.0
 11
-128.4500000000001
 21
237.1105516132644
 31
0.0
  0
LINE
  5
207
330
1F
100
AcDbEntity
  8
0
  6
DASHED
 62
     7
100
AcDbLine
 10
-133.1500000000002
 20
237.1105516132642
 30
0.0
 11
-136.3500000000001
 21
237.1105516132644
 31
0.0
  0
LINE
  5
208
330
1F
100
AcDbEntity
  8
0
  6
DASHED
 62
     7
100
AcDbLine
 10
-139.7500000000001
 20
237.1105516132644
 30
0.0
 11
-140.4000000000002
 21
237.1105516132644
 31
0.0
  0
LINE
  5
209
330
1F
100
AcDbEntity
  8
0
  6
DASHED
 62
     7
100
AcDbLine
 10
-138.5000000000001
 20
237.1105516132644
 30
0.0
 11
-139.7500000000001
 21
237.1105516132644
 31
0.0
  0
LINE
  5
20A
330
1F
100
AcDbEntity
  8
0
  6
DASHED
 62
     7
100
AcDbLine
 10
-136.3500000000001
 20
237.1105516132644
 30
0.0
 11
-137.6000000000001
 21
237.1105516132644
 31
0.0
  0
LINE
  5
20B
330
1F
100
AcDbEntity
  8
0
  6
DASHED
 62
     7
100
AcDbLine
 10
-137.6000000000001
 20
237.1105516132644
 30
0.0
 11
-138.5000000000001
 21
237.1105516132644
 31
0.0
  0
LINE
  5
20C
330
1F
100
AcDbEntity
  8
0
  6
DASHED
 62
     7
100
AcDbLine
 10
-136.6497558672045
 20
238.8105516132644
 30
0.0
 11
-137.6000000000001
 21
238.8105516132644
 31
0.0
  0
LINE
  5
20D
330
1F
100
AcDbEntity
  8
0
  6
DASHED
 62
     7
100
AcDbLine
 10
-137.6000000000001
 20
237.1105516132644
 30
0.0
 11
-137.6000000000001
 21
238.8105516132644
 31
0.0
  0
LINE
  5
20E
330
1F
100
AcDbEntity
  8
0
  6
DASHED
 62
     7
100
AcDbLine
 10
-138.5000000000001
 20
238.8105516132644
 30
0.0
 11
-138.5000000000001
 21
237.1105516132644
 31
0.0
  0
LINE
  5
20F
330
1F
100
AcDbEntity
  8
0
  6
DASHED
 62
     7
100
AcDbLine
 10
-138.5000000000001
 20
238.8105516132644
 30
0.0
 11
-139.4502441327957
 21
238.8105516132644
 31
0.0
  0
LINE
  5
210
330
1F
100
AcDbEntity
  8
0
  6
DASHED
 62
     7
100
AcDbLine
 10
-131.6500000000002
 20
237.1105516132642
 30
0.0
 11
-133.1500000000002
 21
237.1105516132642
 31
0.0
  0
LINE
  5
211
330
1F
100
AcDbEntity
  8
0
  6
DASHED
 62
     7
100
AcDbLine
 10
-127.2000000000001
 20
237.1105516132644
 30
0.0
 11
-128.4500000000001
 21
237.1105516132644
 31
0.0
  0
LINE
  5
212
330
1F
100
AcDbEntity
  8
0
  6
DASHED
 62
     7
100
AcDbLine
 10
-127.2000000000001
 20
238.8105516132644
 30
0.0
 11
-127.2000000000001
 21
237.1105516132644
 31
0.0
  0
LINE
  5
213
330
1F
100
AcDbEntity
  8
0
  6
DASHED
 62
     7
100
AcDbLine
 10
-127.2000000000001
 20
238.8105516132644
 30
0.0
 11
-128.1502441327957
 21
238.8105516132644
 31
0.0
  0
LINE
  5
214
330
1F
100
AcDbEntity
  8
0
  6
DASHED
 62
     7
100
AcDbLine
 10
-126.3000000000001
 20
237.1105516132644
 30
0.0
 11
-127.2000000000001
 21
237.1105516132644
 31
0.0
  0
LINE
  5
215
330
1F
100
AcDbEntity
  8
0
  6
DASHED
 62
     7
100
AcDbLine
 10
-128.4500000000001
 20
237.1105516132644
 30
0.0
 11
-131.6500000000002
 21
237.1105516132642
 31
0.0
  0
LINE
  5
216
330
1F
100
AcDbEntity
  8
0
  6
DASHED
 62
     7
100
AcDbLine
 10
-123.6000000000001
 20
237.1105516132644
 30
0.0
 11
-124.4000000000002
 21
237.1105516132644
 31
0.0
  0
LINE
  5
217
330
1F
100
AcDbEntity
  8
0
  6
DASHED
 62
     7
100
AcDbLine
 10
-122.8500000000001
 20
237.1105516132644
 30
0.0
 11
-123.6000000000001
 21
237.1105516132644
 31
0.0
  0
LINE
  5
218
330
1F
100
AcDbEntity
  8
0
  6
DASHED
 62
     7
100
AcDbLine
 10
-122.8500000000001
 20
237.1105516132644
 30
0.0
 11
-122.8500000000001
 21
235.5105516132644
 31
0.0
  0
LINE
  5
219
330
1F
100
AcDbEntity
  8
0
  6
DASHED
 62
     7
100
AcDbLine
 10
-124.4000000000002
 20
235.5105516132644
 30
0.0
 11
-140.4000000000002
 21
235.5105516132644
 31
0.0
  0
LINE
  5
21A
330
1F
100
AcDbEntity
  8
0
  6
DASHED
 62
     7
100
AcDbLine
 10
-122.8500000000001
 20
235.5105516132644
 30
0.0
 11
-124.4000000000002
 21
235.5105516132644
 31
0.0
  0
LINE
  5
21B
330
1F
100
AcDbEntity
  8
0
  6
DASHED
 62
     7
100
AcDbLine
 10
-140.4000000000002
 20
235.3105516132643
 30
0.0
 11
-140.4000000000002
 21
235.5105516132644
 31
0.0
  0
LINE
  5
21C
330
1F
100
AcDbEntity
  8
0
  6
DASHED
 62
     7
100
AcDbLine
 10
-134.4000000000001
 20
233.4105516132644
 30
0.0
 11
-134.4000000000001
 21
234.7105516132644
 31
0.0
  0
LINE
  5
21D
330
1F
100
AcDbEntity
  8
0
  6
DASHED
 62
     7
100
AcDbLine
 10
-130.4000000000001
 20
234.7105516132644
 30
0.0
 11
-130.4000000000001
 21
233.4105516132644
 31
0.0
  0
LINE
  5
21E
330
1F
100
AcDbEntity
  8
0
  6
DASHED
 62
     7
100
AcDbLine
 10
-130.4000000000001
 20
233.4105516132644
 30
0.0
 11
-129.2500000000001
 21
233.4105516132644
 31
0.0
  0
LINE
  5
21F
330
1F
100
AcDbEntity
  8
0
  6
DASHED
 62
     7
100
AcDbLine
 10
-135.5500000000001
 20
233.4105516132644
 30
0.0
 11
-134.4000000000001
 21
233.4105516132644
 31
0.0
  0
LINE
  5
220
330
1F
100
AcDbEntity
  8
0
  6
DASHED
 62
     7
100
AcDbLine
 10
-134.4000000000001
 20
234.7105516132644
 30
0.0
 11
-130.4000000000001
 21
234.7105516132644
 31
0.0
  0
LINE
  5
221
330
1F
100
AcDbEntity
  8
0
  6
DASHED
 62
     7
100
AcDbLine
 10
-140.4000000000001
 20
234.5105516132644
 30
0.0
 11
-140.4000000000001
 21
235.0105516132644
 31
0.0
  0
LINE
  5
222
330
1F
100
AcDbEntity
  8
0
  6
DASHED
 62
     7
100
AcDbLine
 10
-140.4000000000001
 20
235.0105516132644
 30
0.0
 11
-140.4000000000002
 21
235.3105516132643
 31
0.0
  0
LINE
  5
223
330
1F
100
AcDbEntity
  8
0
  6
DASHED
 62
     7
100
AcDbLine
 10
-140.4000000000002
 20
233.8105516132644
 30
0.0
 11
-140.4000000000001
 21
234.5105516132644
 31
0.0
  0
LINE
  5
224
330
1F
100
AcDbEntity
  8
0
  6
DASHED
 62
     7
100
AcDbLine
 10
-129.2500000000001
 20
233.4105516132644
 30
0.0
 11
-129.2500000000001
 21
231.4605516132644
 31
0.0
  0
LINE
  5
225
330
1F
100
AcDbEntity
  8
0
  6
DASHED
 62
     7
100
AcDbLine
 10
-138.4000000000001
 20
231.4605516132644
 30
0.0
 11
-135.5500000000001
 21
231.4605516132644
 31
0.0
  0
LINE
  5
226
330
1F
100
AcDbEntity
  8
0
  6
DASHED
 62
     7
100
AcDbLine
 10
-135.5500000000001
 20
231.4605516132644
 30
0.0
 11
-135.5500000000001
 21
233.4105516132644
 31
0.0
  0
LINE
  5
227
330
1F
100
AcDbEntity
  8
0
  6
DASHED
 62
     7
100
AcDbLine
 10
-129.2500000000001
 20
231.4605516132644
 30
0.0
 11
-126.4000000000001
 21
231.4605516132644
 31
0.0
  0
LINE
  5
228
330
1F
100
AcDbEntity
  8
0
  6
DASHED
 62
     7
100
AcDbLine
 10
-140.4000000000002
 20
233.8105516132644
 30
0.0
 11
-140.4000000000002
 21
223.3105516132644
 31
0.0
  0
LINE
  5
229
330
1F
100
AcDbEntity
  8
0
  6
DASHED
 62
     7
100
AcDbLine
 10
-139.4502441327957
 20
238.8105516132644
 30
0.0
 11
-139.7500000000001
 21
237.1105516132644
 31
0.0
  0
LINE
  5
22A
330
1F
100
AcDbEntity
  8
0
  6
DASHED
 62
     7
100
AcDbLine
 10
-141.9500000000001
 20
235.5105516132644
 30
0.0
 11
-141.9500000000001
 21
237.1105516132644
 31
0.0
  0
LINE
  5
22B
330
1F
100
AcDbEntity
  8
0
  6
DASHED
 62
     7
100
AcDbLine
 10
-141.2000000000001
 20
237.1105516132644
 30
0.0
 11
-141.9500000000001
 21
237.1105516132644
 31
0.0
  0
LINE
  5
22C
330
1F
100
AcDbEntity
  8
0
  6
DASHED
 62
     7
100
AcDbLine
 10
-140.4000000000002
 20
237.1105516132644
 30
0.0
 11
-141.2000000000001
 21
237.1105516132644
 31
0.0
  0
LINE
  5
22D
330
1F
100
AcDbEntity
  8
0
  6
DASHED
 62
     7
100
AcDbLine
 10
-140.4000000000002
 20
235.5105516132644
 30
0.0
 11
-141.9500000000001
 21
235.5105516132644
 31
0.0
  0
LINE
  5
22E
330
1F
100
AcDbEntity
  8
0
  6
DASHED
 62
     7
100
AcDbLine
 10
-138.4000000000001
 20
224.5605516132644
 30
0.0
 11
-138.4000000000001
 21
231.4605516132644
 31
0.0
  0
LINE
  5
22F
330
1F
100
AcDbEntity
  8
0
  6
Continuous
 62
     7
100
AcDbLine
 10
-147.1000000000001
 20
220.0105516132642
 30
0.0
 11
-147.1000000000001
 21
236.0105516132644
 31
0.0
  0
LINE
  5
230
330
1F
100
AcDbEntity
  8
0
  6
Continuous
 62
     7
100
AcDbLine
 10
-146.1000000000001
 20
236.4605516132644
 30
0.0
 11
-146.6830749964237
 21
236.7324439493754
 31
0.0
  0
LINE
  5
231
330
1F
100
AcDbEntity
  8
0
  6
Continuous
 62
     7
100
AcDbLine
 10
-147.1
 20
243.0105516132644
 30
0.0
 11
-147.1000000000001
 21
241.0105516132645
 31
0.0
  0
LINE
  5
232
330
1F
100
AcDbEntity
  8
0
  6
Continuous
 62
     7
100
AcDbLine
 10
-145.0500000000001
 20
243.0105516132644
 30
0.0
 11
-143.8500000000001
 21
243.0105516132644
 31
0.0
  0
LINE
  5
233
330
1F
100
AcDbEntity
  8
0
  6
Continuous
 62
     7
100
AcDbLine
 10
-145.0500000000001
 20
241.0105516132644
 30
0.0
 11
-147.1000000000001
 21
241.0105516132645
 31
0.0
  0
LINE
  5
234
330
1F
100
AcDbEntity
  8
0
  6
Continuous
 62
     7
100
AcDbLine
 10
-146.6830749964237
 20
239.2886592771534
 30
0.0
 11
-146.1000000000001
 21
239.5605516132644
 31
0.0
  0
LINE
  5
235
330
1F
100
AcDbEntity
  8
0
  6
Continuous
 62
     7
100
AcDbLine
 10
-147.1000000000001
 20
239.4842688760213
 30
0.0
 11
-147.1000000000001
 21
239.6368343505074
 31
0.0
  0
LINE
  5
236
330
1F
100
AcDbEntity
  8
0
  6
Continuous
 62
     7
100
AcDbLine
 10
-146.9628818645654
 20
236.2025119761562
 30
0.0
 11
-146.9385440143705
 21
236.1845888724126
 31
0.0
  0
LINE
  5
237
330
1F
100
AcDbEntity
  8
0
  6
Continuous
 62
     7
100
AcDbLine
 10
-147.1000000000001
 20
240.0105516132644
 30
0.0
 11
-147.0057636860286
 21
240.0105516132644
 31
0.0
  0
LINE
  5
238
330
1F
100
AcDbEntity
  8
0
  6
Continuous
 62
     7
100
AcDbLine
 10
-146.9385440143705
 20
239.8365143541161
 30
0.0
 11
-146.9628818645654
 21
239.8185912503726
 31
0.0
  0
LINE
  5
239
330
1F
100
AcDbEntity
  8
0
  6
Continuous
 62
     7
100
AcDbLine
 10
-146.1000000000001
 20
239.5605516132644
 30
0.0
 11
-146.1000000000001
 21
236.4605516132644
 31
0.0
  0
LINE
  5
23A
330
1F
100
AcDbEntity
  8
0
  6
Continuous
 62
     7
100
AcDbLine
 10
-143.8000000000002
 20
223.8105516132644
 30
0.0
 11
-143.8000000000002
 21
231.8105516132642
 31
0.0
  0
LINE
  5
23B
330
1F
100
AcDbEntity
  8
0
  6
Continuous
 62
     7
100
AcDbLine
 10
-147.1000000000001
 20
236.0105516132644
 30
0.0
 11
-147.0057636860286
 21
236.0105516132644
 31
0.0
  0
LINE
  5
23C
330
1F
100
AcDbEntity
  8
0
  6
Continuous
 62
     7
100
AcDbLine
 10
-147.1000000000001
 20
236.3842688760213
 30
0.0
 11
-147.1000000000001
 21
236.5368343505073
 31
0.0
  0
LINE
  5
23D
330
1F
100
AcDbEntity
  8
0
  6
Continuous
 62
     7
100
AcDbLine
 10
-147.1000000000001
 20
240.0105516132644
 30
0.0
 11
-147.1000000000001
 21
241.0105516132645
 31
0.0
  0
LINE
  5
23E
330
1F
100
AcDbEntity
  8
0
  6
Continuous
 62
     7
100
AcDbLine
 10
-145.6000000000001
 20
234.5105516132643
 30
0.0
 11
-145.6000000000001
 21
221.8105516132644
 31
0.0
  0
LINE
  5
23F
330
1F
100
AcDbEntity
  8
0
  6
Continuous
 62
     7
100
AcDbLine
 10
-143.4000000000001
 20
241.0105516132643
 30
0.0
 11
-143.4000000000001
 21
240.0105516132644
 31
0.0
  0
LINE
  5
240
330
1F
100
AcDbEntity
  8
0
  6
Continuous
 62
     7
100
AcDbLine
 10
-135.6500000000002
 20
245.0105516132644
 30
0.0
 11
-143.8500000000001
 21
245.0105516132644
 31
0.0
  0
LINE
  5
241
330
1F
100
AcDbEntity
  8
0
  6
Continuous
 62
     7
100
AcDbLine
 10
-120.9500000000001
 20
245.0105516132644
 30
0.0
 11
-129.1500000000002
 21
245.0105516132644
 31
0.0
  0
LINE
  5
242
330
1F
100
AcDbEntity
  8
0
  6
Continuous
 62
     7
100
AcDbLine
 10
-121.9
 20
241.5105516132642
 30
0.0
 11
-128.1500000000001
 21
241.5105516132642
 31
0.0
  0
LINE
  5
243
330
1F
100
AcDbEntity
  8
0
  6
Continuous
 62
     7
100
AcDbLine
 10
-136.6500000000001
 20
241.5105516132643
 30
0.0
 11
-142.9000000000001
 21
241.5105516132643
 31
0.0
  0
LINE
  5
244
330
1F
100
AcDbEntity
  8
0
  6
Continuous
 62
     7
100
AcDbLine
 10
-130.3500000000001
 20
243.0105516132644
 30
0.0
 11
-134.4500000000001
 21
243.0105516132644
 31
0.0
  0
LINE
  5
245
330
1F
100
AcDbEntity
  8
0
  6
Continuous
 62
     7
100
AcDbLine
 10
-145.0500000000001
 20
243.0105516132644
 30
0.0
 11
-147.1
 21
243.0105516132644
 31
0.0
  0
LINE
  5
246
330
1F
100
AcDbEntity
  8
0
  6
Continuous
 62
     7
100
AcDbLine
 10
-130.3500000000001
 20
243.0105516132644
 30
0.0
 11
-129.1500000000002
 21
243.0105516132644
 31
0.0
  0
LINE
  5
247
330
1F
100
AcDbEntity
  8
0
  6
Continuous
 62
     7
100
AcDbLine
 10
-119.7500000000001
 20
241.0105516132644
 30
0.0
 11
-119.7500000000001
 21
243.0105516132644
 31
0.0
  0
LINE
  5
248
330
1F
100
AcDbEntity
  8
0
  6
Continuous
 62
     7
100
AcDbLine
 10
-135.6500000000002
 20
243.0105516132644
 30
0.0
 11
-134.4500000000001
 21
243.0105516132644
 31
0.0
  0
LINE
  5
249
330
1F
100
AcDbEntity
  8
0
  6
Continuous
 62
     7
100
AcDbLine
 10
-145.0500000000001
 20
243.0105516132644
 30
0.0
 11
-145.0500000000001
 21
241.0105516132644
 31
0.0
  0
LINE
  5
24A
330
1F
100
AcDbEntity
  8
0
  6
Continuous
 62
     7
100
AcDbLine
 10
-134.4500000000001
 20
241.0105516132644
 30
0.0
 11
-134.4500000000001
 21
243.0105516132644
 31
0.0
  0
LINE
  5
24B
330
1F
100
AcDbEntity
  8
0
  6
Continuous
 62
     7
100
AcDbLine
 10
-130.3500000000001
 20
243.0105516132644
 30
0.0
 11
-130.3500000000001
 21
241.0105516132644
 31
0.0
  0
LINE
  5
24C
330
1F
100
AcDbEntity
  8
0
  6
Continuous
 62
     7
100
AcDbLine
 10
-120.9500000000001
 20
243.0105516132644
 30
0.0
 11
-119.7500000000001
 21
243.0105516132644
 31
0.0
  0
LINE
  5
24D
330
1F
100
AcDbEntity
  8
0
  6
Continuous
 62
     7
100
AcDbLine
 10
-120.9500000000001
 20
245.0105516132644
 30
0.0
 11
-120.9500000000001
 21
243.0105516132644
 31
0.0
  0
LINE
  5
24E
330
1F
100
AcDbEntity
  8
0
  6
Continuous
 62
     7
100
AcDbLine
 10
-129.1500000000002
 20
243.0105516132644
 30
0.0
 11
-129.1500000000002
 21
245.0105516132644
 31
0.0
  0
LINE
  5
24F
330
1F
100
AcDbEntity
  8
0
  6
Continuous
 62
     7
100
AcDbLine
 10
-135.6500000000002
 20
245.0105516132644
 30
0.0
 11
-135.6500000000002
 21
243.0105516132644
 31
0.0
  0
LINE
  5
250
330
1F
100
AcDbEntity
  8
0
  6
Continuous
 62
     7
100
AcDbLine
 10
-143.8500000000001
 20
243.0105516132644
 30
0.0
 11
-143.8500000000001
 21
245.0105516132644
 31
0.0
  0
LINE
  5
251
330
1F
100
AcDbEntity
  8
0
  6
Continuous
 62
     7
100
AcDbLine
 10
-130.3500000000001
 20
241.0105516132644
 30
0.0
 11
-134.4500000000001
 21
241.0105516132644
 31
0.0
  0
LINE
  5
252
330
1F
100
AcDbEntity
  8
0
  6
Continuous
 62
     7
100
AcDbLine
 10
-128.6500000000001
 20
241.0105516132643
 30
0.0
 11
-128.6500000000001
 21
240.0105516132643
 31
0.0
  0
LINE
  5
253
330
1F
100
AcDbEntity
  8
0
  6
Continuous
 62
     7
100
AcDbLine
 10
-136.1500000000001
 20
240.0105516132643
 30
0.0
 11
-136.1500000000001
 21
241.0105516132643
 31
0.0
  0
LINE
  5
254
330
1F
100
AcDbEntity
  8
0
  6
Continuous
 62
     7
100
AcDbLine
 10
-147.1000000000001
 20
216.3842688760213
 30
0.0
 11
-147.1000000000001
 21
216.5368343505074
 31
0.0
  0
LINE
  5
255
330
1F
100
AcDbEntity
  8
0
  6
Continuous
 62
     7
100
AcDbLine
 10
-147.1000000000001
 20
219.4842688760213
 30
0.0
 11
-147.1000000000001
 21
219.6368343505075
 31
0.0
  0
LINE
  5
256
330
1F
100
AcDbEntity
  8
0
  6
Continuous
 62
     7
100
AcDbLine
 10
-140.9000000000002
 20
223.3105516132644
 30
0.0
 11
-140.9000000000002
 21
221.3105516132644
 31
0.0
  0
LINE
  5
257
330
1F
100
AcDbEntity
  8
0
  6
Continuous
 62
     7
100
AcDbLine
 10
-145.0500000000001
 20
213.0105516132644
 30
0.0
 11
-142.8500000000001
 21
213.0105516132645
 31
0.0
  0
LINE
  5
258
330
1F
100
AcDbEntity
  8
0
  6
Continuous
 62
     7
100
AcDbLine
 10
-145.0500000000001
 20
215.0105516132644
 30
0.0
 11
-145.0500000000001
 21
213.0105516132644
 31
0.0
  0
LINE
  5
259
330
1F
100
AcDbEntity
  8
0
  6
Continuous
 62
     7
100
AcDbLine
 10
-147.1000000000001
 20
215.0105516132645
 30
0.0
 11
-147.1000000000001
 21
216.0105516132644
 31
0.0
  0
LINE
  5
25A
330
1F
100
AcDbEntity
  8
0
  6
Continuous
 62
     7
100
AcDbLine
 10
-147.1000000000001
 20
215.0105516132645
 30
0.0
 11
-147.1000000000001
 21
213.0105516132644
 31
0.0
  0
LINE
  5
25B
330
1F
100
AcDbEntity
  8
0
  6
Continuous
 62
     7
100
AcDbLine
 10
-147.1000000000001
 20
216.0105516132644
 30
0.0
 11
-147.1000000000001
 21
216.3842688760213
 31
0.0
  0
LINE
  5
25C
330
1F
100
AcDbEntity
  8
0
  6
Continuous
 62
     7
100
AcDbLine
 10
-147.0057636860286
 20
216.0105516132644
 30
0.0
 11
-147.1000000000001
 21
216.0105516132644
 31
0.0
  0
LINE
  5
25D
330
1F
100
AcDbEntity
  8
0
  6
Continuous
 62
     7
100
AcDbLine
 10
-147.1000000000001
 20
215.0105516132645
 30
0.0
 11
-145.0500000000001
 21
215.0105516132644
 31
0.0
  0
LINE
  5
25E
330
1F
100
AcDbEntity
  8
0
  6
Continuous
 62
     7
100
AcDbLine
 10
-146.1000000000001
 20
216.4605516132644
 30
0.0
 11
-146.6830749964237
 21
216.7324439493754
 31
0.0
  0
LINE
  5
25F
330
1F
100
AcDbEntity
  8
0
  6
Continuous
 62
     7
100
AcDbLine
 10
-146.9385440143705
 20
219.8365143541161
 30
0.0
 11
-146.9628818645654
 21
219.8185912503726
 31
0.0
  0
LINE
  5
260
330
1F
100
AcDbEntity
  8
0
  6
Continuous
 62
     7
100
AcDbLine
 10
-146.9628818645654
 20
216.2025119761562
 30
0.0
 11
-146.9385440143705
 21
216.1845888724127
 31
0.0
  0
LINE
  5
261
330
1F
100
AcDbEntity
  8
0
  6
Continuous
 62
     7
100
AcDbLine
 10
-140.9000000000002
 20
223.3105516132644
 30
0.0
 11
-143.3000000000002
 21
223.3105516132644
 31
0.0
  0
LINE
  5
262
330
1F
100
AcDbEntity
  8
0
  6
Continuous
 62
     7
100
AcDbLine
 10
-145.1000000000001
 20
221.3105516132644
 30
0.0
 11
-140.9000000000002
 21
221.3105516132644
 31
0.0
  0
LINE
  5
263
330
1F
100
AcDbEntity
  8
0
  6
Continuous
 62
     7
100
AcDbLine
 10
-147.0057636860286
 20
220.0105516132644
 30
0.0
 11
-147.1000000000001
 21
220.0105516132642
 31
0.0
  0
LINE
  5
264
330
1F
100
AcDbEntity
  8
0
  6
Continuous
 62
     7
100
AcDbLine
 10
-146.1000000000001
 20
216.4605516132644
 30
0.0
 11
-146.1000000000001
 21
219.5605516132644
 31
0.0
  0
LINE
  5
265
330
1F
100
AcDbEntity
  8
0
  6
Continuous
 62
     7
100
AcDbLine
 10
-146.6830749964237
 20
219.2886592771534
 30
0.0
 11
-146.1000000000001
 21
219.5605516132644
 31
0.0
  0
LINE
  5
266
330
1F
100
AcDbEntity
  8
0
  6
Continuous
 62
     7
100
AcDbLine
 10
-140.9000000000002
 20
221.3105516132644
 30
0.0
 11
-140.4000000000002
 21
221.3105516132644
 31
0.0
  0
LINE
  5
267
330
1F
100
AcDbEntity
  8
0
  6
Continuous
 62
     7
100
AcDbLine
 10
-140.4000000000002
 20
223.3105516132644
 30
0.0
 11
-140.4000000000001
 21
221.7105516132644
 31
0.0
  0
LINE
  5
268
330
1F
100
AcDbEntity
  8
0
  6
Continuous
 62
     7
100
AcDbLine
 10
-147.1000000000001
 20
216.5368343505074
 30
0.0
 11
-147.1000000000001
 21
219.4842688760213
 31
0.0
  0
LINE
  5
269
330
1F
100
AcDbEntity
  8
0
  6
Continuous
 62
     7
100
AcDbLine
 10
-147.1000000000001
 20
219.6368343505075
 30
0.0
 11
-147.1000000000001
 21
220.0105516132642
 31
0.0
  0
LINE
  5
26A
330
1F
100
AcDbEntity
  8
0
  6
Continuous
 62
     7
100
AcDbLine
 10
-140.4000000000001
 20
221.7105516132644
 30
0.0
 11
-140.4000000000002
 21
221.3105516132644
 31
0.0
  0
LINE
  5
26B
330
1F
100
AcDbEntity
  8
0
  6
Continuous
 62
     7
100
AcDbLine
 10
-140.9000000000002
 20
223.3105516132644
 30
0.0
 11
-140.4000000000002
 21
223.3105516132644
 31
0.0
  0
LINE
  5
26C
330
1F
100
AcDbEntity
  8
0
  6
Continuous
 62
     7
100
AcDbLine
 10
-124.4000000000001
 20
221.7105516132644
 30
0.0
 11
-124.4000000000002
 21
223.3105516132644
 31
0.0
  0
LINE
  5
26D
330
1F
100
AcDbEntity
  8
0
  6
Continuous
 62
     7
100
AcDbLine
 10
-124.4000000000002
 20
221.3105516132644
 30
0.0
 11
-124.4000000000001
 21
221.7105516132644
 31
0.0
  0
LINE
  5
26E
330
1F
100
AcDbEntity
  8
0
  6
Continuous
 62
     7
100
AcDbLine
 10
-124.4000000000002
 20
223.3105516132644
 30
0.0
 11
-123.9000000000002
 21
223.3105516132644
 31
0.0
  0
LINE
  5
26F
330
1F
100
AcDbEntity
  8
0
  6
Continuous
 62
     7
100
AcDbLine
 10
-140.4000000000002
 20
221.3105516132644
 30
0.0
 11
-124.4000000000002
 21
221.3105516132644
 31
0.0
  0
LINE
  5
270
330
1F
100
AcDbEntity
  8
0
  6
Continuous
 62
     7
100
AcDbLine
 10
-124.4000000000002
 20
221.3105516132644
 30
0.0
 11
-123.9000000000002
 21
221.3105516132644
 31
0.0
  0
LINE
  5
271
330
1F
100
AcDbEntity
  8
0
  6
Continuous
 62
     7
100
AcDbLine
 10
-119.2000000000001
 20
221.8105516132644
 30
0.0
 11
-119.2000000000001
 21
239.0105516132644
 31
0.0
  0
LINE
  5
272
330
1F
100
AcDbEntity
  8
0
  6
Continuous
 62
     7
100
AcDbLine
 10
-117.7000000000001
 20
241.0105516132644
 30
0.0
 11
-119.7500000000001
 21
241.0105516132644
 31
0.0
  0
LINE
  5
273
330
1F
100
AcDbEntity
  8
0
  6
Continuous
 62
     7
100
AcDbLine
 10
-117.7000000000001
 20
241.0105516132644
 30
0.0
 11
-117.7000000000001
 21
239.3548118363484
 31
0.0
  0
LINE
  5
274
330
1F
100
AcDbEntity
  8
0
  6
Continuous
 62
     7
100
AcDbLine
 10
-117.7000000000001
 20
243.0105516132644
 30
0.0
 11
-119.7500000000001
 21
243.0105516132644
 31
0.0
  0
LINE
  5
275
330
1F
100
AcDbEntity
  8
0
  6
Continuous
 62
     7
100
AcDbLine
 10
-122.6500000000002
 20
235.4605516132644
 30
0.0
 11
-122.1500000000002
 21
235.4605516132644
 31
0.0
  0
LINE
  5
276
330
1F
100
AcDbEntity
  8
0
  6
Continuous
 62
     7
100
AcDbLine
 10
-122.6500000000002
 20
235.4605516132644
 30
0.0
 11
-122.6500000000002
 21
236.9605516132644
 31
0.0
  0
LINE
  5
277
330
1F
100
AcDbEntity
  8
0
  6
Continuous
 62
     7
100
AcDbLine
 10
-121.4
 20
240.0105516132644
 30
0.0
 11
-121.4
 21
241.0105516132642
 31
0.0
  0
LINE
  5
278
330
1F
100
AcDbEntity
  8
0
  6
Continuous
 62
     7
100
AcDbLine
 10
-119.7000000000001
 20
239.5105516132644
 30
0.0
 11
-120.9
 21
239.5105516132644
 31
0.0
  0
LINE
  5
279
330
1F
100
AcDbEntity
  8
0
  6
Continuous
 62
     7
100
AcDbLine
 10
-122.1500000000002
 20
236.9605516132644
 30
0.0
 11
-122.1500000000002
 21
235.4605516132644
 31
0.0
  0
LINE
  5
27A
330
1F
100
AcDbEntity
  8
0
  6
Continuous
 62
     7
100
AcDbLine
 10
-122.1500000000002
 20
237.1105516132644
 30
0.0
 11
-122.1500000000002
 21
236.9605516132644
 31
0.0
  0
LINE
  5
27B
330
1F
100
AcDbEntity
  8
0
  6
Continuous
 62
     7
100
AcDbLine
 10
-122.1500000000002
 20
236.9605516132644
 30
0.0
 11
-122.6500000000002
 21
236.9605516132644
 31
0.0
  0
LINE
  5
27C
330
1F
100
AcDbEntity
  8
0
  6
Continuous
 62
     7
100
AcDbLine
 10
-122.1500000000002
 20
235.3105516132645
 30
0.0
 11
-122.1500000000002
 21
234.8105516132645
 31
0.0
  0
LINE
  5
27D
330
1F
100
AcDbEntity
  8
0
  6
Continuous
 62
     7
100
AcDbLine
 10
-123.6500000000002
 20
233.8105516132644
 30
0.0
 11
-123.6500000000002
 21
232.8105516132642
 31
0.0
  0
LINE
  5
27E
330
1F
100
AcDbEntity
  8
0
  6
Continuous
 62
     7
100
AcDbLine
 10
-121.5000000000002
 20
232.3105516132642
 30
0.0
 11
-123.1500000000002
 21
232.3105516132642
 31
0.0
  0
LINE
  5
27F
330
1F
100
AcDbEntity
  8
0
  6
Continuous
 62
     7
100
AcDbLine
 10
-122.1500000000002
 20
234.8105516132645
 30
0.0
 11
-123.9000000000002
 21
234.8105516132645
 31
0.0
  0
LINE
  5
280
330
1F
100
AcDbEntity
  8
0
  6
Continuous
 62
     7
100
AcDbLine
 10
-123.9000000000002
 20
233.8105516132644
 30
0.0
 11
-123.9000000000002
 21
234.8105516132645
 31
0.0
  0
LINE
  5
281
330
1F
100
AcDbEntity
  8
0
  6
Continuous
 62
     7
100
AcDbLine
 10
-123.9000000000002
 20
233.8105516132644
 30
0.0
 11
-123.6500000000002
 21
233.8105516132644
 31
0.0
  0
LINE
  5
282
330
1F
100
AcDbEntity
  8
0
  6
Continuous
 62
     7
100
AcDbLine
 10
-121.5000000000002
 20
223.3105516132644
 30
0.0
 11
-123.9000000000002
 21
223.3105516132644
 31
0.0
  0
LINE
  5
283
330
1F
100
AcDbEntity
  8
0
  6
Continuous
 62
     7
100
AcDbLine
 10
-123.9000000000002
 20
221.3105516132644
 30
0.0
 11
-123.9000000000002
 21
223.3105516132644
 31
0.0
  0
LINE
  5
284
330
1F
100
AcDbEntity
  8
0
  6
Continuous
 62
     7
100
AcDbLine
 10
-123.9000000000002
 20
221.3105516132644
 30
0.0
 11
-119.7000000000001
 21
221.3105516132644
 31
0.0
  0
LINE
  5
285
330
1F
100
AcDbEntity
  8
0
  6
Continuous
 62
     7
100
AcDbLine
 10
-124.4000000000002
 20
235.5105516132644
 30
0.0
 11
-124.4000000000002
 21
235.3105516132643
 31
0.0
  0
LINE
  5
286
330
1F
100
AcDbEntity
  8
0
  6
Continuous
 62
     7
100
AcDbLine
 10
-124.4000000000002
 20
235.3105516132643
 30
0.0
 11
-123.9000000000002
 21
234.8105516132645
 31
0.0
  0
LINE
  5
287
330
1F
100
AcDbEntity
  8
0
  6
Continuous
 62
     7
100
AcDbLine
 10
-123.9000000000002
 20
233.8105516132644
 30
0.0
 11
-124.4000000000002
 21
233.8105516132644
 31
0.0
  0
LINE
  5
288
330
1F
100
AcDbEntity
  8
0
  6
Continuous
 62
     7
100
AcDbLine
 10
-124.4000000000002
 20
233.8105516132644
 30
0.0
 11
-124.4000000000001
 21
234.5105516132644
 31
0.0
  0
LINE
  5
289
330
1F
100
AcDbEntity
  8
0
  6
Continuous
 62
     7
100
AcDbLine
 10
-124.4000000000001
 20
235.0105516132644
 30
0.0
 11
-124.4000000000002
 21
235.3105516132643
 31
0.0
  0
LINE
  5
28A
330
1F
100
AcDbEntity
  8
0
  6
Continuous
 62
     7
100
AcDbLine
 10
-124.4000000000001
 20
234.5105516132644
 30
0.0
 11
-124.4000000000001
 21
235.0105516132644
 31
0.0
  0
LINE
  5
28B
330
1F
100
AcDbEntity
  8
0
  6
Continuous
 62
     7
100
AcDbLine
 10
-121.9500000000001
 20
211.0105516132645
 30
0.0
 11
-128.1500000000001
 21
211.0105516132645
 31
0.0
  0
LINE
  5
28C
330
1F
100
AcDbEntity
  8
0
  6
Continuous
 62
     7
100
AcDbLine
 10
-136.6500000000002
 20
213.0105516132645
 30
0.0
 11
-134.4500000000001
 21
213.0105516132644
 31
0.0
  0
LINE
  5
28D
330
1F
100
AcDbEntity
  8
0
  6
Continuous
 62
     7
100
AcDbLine
 10
-136.6500000000002
 20
213.0105516132645
 30
0.0
 11
-136.6500000000002
 21
211.0105516132645
 31
0.0
  0
LINE
  5
28E
330
1F
100
AcDbEntity
  8
0
  6
Continuous
 62
     7
100
AcDbLine
 10
-136.6500000000002
 20
211.0105516132645
 30
0.0
 11
-142.8500000000001
 21
211.0105516132645
 31
0.0
  0
LINE
  5
28F
330
1F
100
AcDbEntity
  8
0
  6
Continuous
 62
     7
100
AcDbLine
 10
-119.7500000000001
 20
213.0105516132644
 30
0.0
 11
-117.7000000000001
 21
213.0105516132645
 31
0.0
  0
LINE
  5
290
330
1F
100
AcDbEntity
  8
0
  6
Continuous
 62
     7
100
AcDbLine
 10
-134.4500000000001
 20
213.0105516132644
 30
0.0
 11
-130.3500000000001
 21
213.0105516132644
 31
0.0
  0
LINE
  5
291
330
1F
100
AcDbEntity
  8
0
  6
Continuous
 62
     7
100
AcDbLine
 10
-142.8500000000001
 20
211.0105516132645
 30
0.0
 11
-142.8500000000001
 21
213.0105516132645
 31
0.0
  0
LINE
  5
292
330
1F
100
AcDbEntity
  8
0
  6
Continuous
 62
     7
100
AcDbLine
 10
-134.4500000000001
 20
213.0105516132644
 30
0.0
 11
-134.4500000000001
 21
215.0105516132644
 31
0.0
  0
LINE
  5
293
330
1F
100
AcDbEntity
  8
0
  6
Continuous
 62
     7
100
AcDbLine
 10
-130.3500000000001
 20
215.0105516132644
 30
0.0
 11
-130.3500000000001
 21
213.0105516132644
 31
0.0
  0
LINE
  5
294
330
1F
100
AcDbEntity
  8
0
  6
Continuous
 62
     7
100
AcDbLine
 10
-130.3500000000001
 20
213.0105516132644
 30
0.0
 11
-128.1500000000001
 21
213.0105516132645
 31
0.0
  0
LINE
  5
295
330
1F
100
AcDbEntity
  8
0
  6
Continuous
 62
     7
100
AcDbLine
 10
-128.1500000000001
 20
211.0105516132645
 30
0.0
 11
-128.1500000000001
 21
213.0105516132645
 31
0.0
  0
LINE
  5
296
330
1F
100
AcDbEntity
  8
0
  6
Continuous
 62
     7
100
AcDbLine
 10
-134.4500000000001
 20
215.0105516132644
 30
0.0
 11
-130.3500000000001
 21
215.0105516132644
 31
0.0
  0
LINE
  5
297
330
1F
100
AcDbEntity
  8
0
  6
Continuous
 62
     7
100
AcDbLine
 10
-121.9500000000001
 20
213.0105516132645
 30
0.0
 11
-121.9500000000001
 21
211.0105516132645
 31
0.0
  0
LINE
  5
298
330
1F
100
AcDbEntity
  8
0
  6
Continuous
 62
     7
100
AcDbLine
 10
-121.9500000000001
 20
213.0105516132645
 30
0.0
 11
-119.7500000000001
 21
213.0105516132644
 31
0.0
  0
LINE
  5
299
330
1F
100
AcDbEntity
  8
0
  6
Continuous
 62
     7
100
AcDbLine
 10
-143.9000000000001
 20
239.5105516132644
 30
0.0
 11
-144.1000000000001
 21
239.5105516132644
 31
0.0
  0
LINE
  5
29A
330
1F
100
AcDbEntity
  8
0
  6
Continuous
 62
     7
100
AcDbLine
 10
-147.1000000000001
 20
239.6368343505074
 30
0.0
 11
-147.1000000000001
 21
240.0105516132644
 31
0.0
  0
LINE
  5
29B
330
1F
100
AcDbEntity
  8
0
  6
Continuous
 62
     7
100
AcDbLine
 10
-142.1500000000002
 20
236.9605516132644
 30
0.0
 11
-142.6500000000002
 21
236.9605516132644
 31
0.0
  0
LINE
  5
29C
330
1F
100
AcDbEntity
  8
0
  6
Continuous
 62
     7
100
AcDbLine
 10
-142.6500000000002
 20
237.1105516132645
 30
0.0
 11
-142.6500000000002
 21
236.9605516132644
 31
0.0
  0
LINE
  5
29D
330
1F
100
AcDbEntity
  8
0
  6
Continuous
 62
     7
100
AcDbLine
 10
-133.1500000000002
 20
237.6105516132642
 30
0.0
 11
-133.1500000000002
 21
239.0105516132643
 31
0.0
  0
LINE
  5
29E
330
1F
100
AcDbEntity
  8
0
  6
Continuous
 62
     7
100
AcDbLine
 10
-131.6500000000002
 20
239.0105516132643
 30
0.0
 11
-131.6500000000002
 21
237.6105516132642
 31
0.0
  0
LINE
  5
29F
330
1F
100
AcDbEntity
  8
0
  6
Continuous
 62
     7
100
AcDbLine
 10
-140.4000000000002
 20
237.6105516132644
 30
0.0
 11
-142.6500000000002
 21
237.6105516132644
 31
0.0
  0
LINE
  5
2A0
330
1F
100
AcDbEntity
  8
0
  6
Continuous
 62
     7
100
AcDbLine
 10
-133.1500000000002
 20
237.6105516132642
 30
0.0
 11
-133.1500000000002
 21
237.1105516132642
 31
0.0
  0
LINE
  5
2A1
330
1F
100
AcDbEntity
  8
0
  6
Continuous
 62
     7
100
AcDbLine
 10
-135.6500000000001
 20
239.5105516132643
 30
0.0
 11
-139.9000000000002
 21
239.5105516132643
 31
0.0
  0
LINE
  5
2A2
330
1F
100
AcDbEntity
  8
0
  6
Continuous
 62
     7
100
AcDbLine
 10
-133.6500000000002
 20
239.5105516132643
 30
0.0
 11
-135.6500000000001
 21
239.5105516132643
 31
0.0
  0
LINE
  5
2A3
330
1F
100
AcDbEntity
  8
0
  6
Continuous
 62
     7
100
AcDbLine
 10
-140.4000000000002
 20
237.6105516132644
 30
0.0
 11
-140.4000000000002
 21
239.0105516132643
 31
0.0
  0
LINE
  5
2A4
330
1F
100
AcDbEntity
  8
0
  6
Continuous
 62
     7
100
AcDbLine
 10
-131.6500000000002
 20
237.6105516132642
 30
0.0
 11
-133.1500000000002
 21
237.6105516132642
 31
0.0
  0
LINE
  5
2A5
330
1F
100
AcDbEntity
  8
0
  6
Continuous
 62
     7
100
AcDbLine
 10
-131.6500000000002
 20
237.1105516132642
 30
0.0
 11
-133.1500000000002
 21
237.1105516132642
 31
0.0
  0
LINE
  5
2A6
330
1F
100
AcDbEntity
  8
0
  6
Continuous
 62
     7
100
AcDbLine
 10
-131.6500000000002
 20
237.1105516132642
 30
0.0
 11
-131.6500000000002
 21
237.6105516132642
 31
0.0
  0
LINE
  5
2A7
330
1F
100
AcDbEntity
  8
0
  6
Continuous
 62
     7
100
AcDbLine
 10
-129.1500000000001
 20
239.5105516132643
 30
0.0
 11
-124.9000000000002
 21
239.5105516132643
 31
0.0
  0
LINE
  5
2A8
330
1F
100
AcDbEntity
  8
0
  6
Continuous
 62
     7
100
AcDbLine
 10
-131.1500000000002
 20
239.5105516132643
 30
0.0
 11
-133.6500000000002
 21
239.5105516132643
 31
0.0
  0
LINE
  5
2A9
330
1F
100
AcDbEntity
  8
0
  6
Continuous
 62
     7
100
AcDbLine
 10
-129.1500000000001
 20
239.5105516132643
 30
0.0
 11
-131.1500000000002
 21
239.5105516132643
 31
0.0
  0
LINE
  5
2AA
330
1F
100
AcDbEntity
  8
0
  6
Continuous
 62
     7
100
AcDbLine
 10
-124.4000000000002
 20
239.0105516132643
 30
0.0
 11
-124.4000000000002
 21
237.6105516132644
 31
0.0
  0
LINE
  5
2AB
330
1F
100
AcDbEntity
  8
0
  6
Continuous
 62
     7
100
AcDbLine
 10
-124.4000000000002
 20
237.1105516132644
 30
0.0
 11
-124.4000000000002
 21
237.6105516132644
 31
0.0
  0
LINE
  5
2AC
330
1F
100
AcDbEntity
  8
0
  6
Continuous
 62
     7
100
AcDbLine
 10
-122.1500000000002
 20
237.6105516132644
 30
0.0
 11
-124.4000000000002
 21
237.6105516132644
 31
0.0
  0
LINE
  5
2AD
330
1F
100
AcDbEntity
  8
0
  6
Continuous
 62
     7
100
AcDbLine
 10
-122.1500000000002
 20
237.6105516132644
 30
0.0
 11
-122.1500000000002
 21
237.1105516132644
 31
0.0
  0
LINE
  5
2AE
330
1F
100
AcDbEntity
  8
0
  6
Continuous
 62
     7
100
AcDbLine
 10
-123.6000000000001
 20
237.1105516132644
 30
0.0
 11
-124.4000000000002
 21
237.1105516132644
 31
0.0
  0
LINE
  5
2AF
330
1F
100
AcDbEntity
  8
0
  6
Continuous
 62
     7
100
AcDbLine
 10
-122.2000000000001
 20
237.1105516132644
 30
0.0
 11
-122.7000000000001
 21
237.1105516132644
 31
0.0
  0
LINE
  5
2B0
330
1F
100
AcDbEntity
  8
0
  6
Continuous
 62
     7
100
AcDbLine
 10
-122.7000000000001
 20
237.1105516132644
 30
0.0
 11
-122.8500000000001
 21
237.1105516132644
 31
0.0
  0
LINE
  5
2B1
330
1F
100
AcDbEntity
  8
0
  6
Continuous
 62
     7
100
AcDbLine
 10
-122.1500000000002
 20
237.1105516132644
 30
0.0
 11
-122.2000000000001
 21
237.1105516132644
 31
0.0
  0
LINE
  5
2B2
330
1F
100
AcDbEntity
  8
0
  6
Continuous
 62
     7
100
AcDbLine
 10
-122.8500000000001
 20
237.1105516132644
 30
0.0
 11
-123.6000000000001
 21
237.1105516132644
 31
0.0
  0
LINE
  5
2B3
330
1F
100
AcDbEntity
  8
0
  6
Continuous
 62
     7
100
AcDbLine
 10
-122.1500000000002
 20
235.3105516132645
 30
0.0
 11
-124.4000000000002
 21
235.3105516132643
 31
0.0
  0
LINE
  5
2B4
330
1F
100
AcDbEntity
  8
0
  6
Continuous
 62
     7
100
AcDbLine
 10
-122.1500000000002
 20
235.4605516132644
 30
0.0
 11
-122.1500000000002
 21
235.3105516132645
 31
0.0
  0
LINE
  5
2B5
330
1F
100
AcDbEntity
  8
0
  6
Continuous
 62
     7
100
AcDbLine
 10
-140.4000000000002
 20
235.3105516132643
 30
0.0
 11
-140.4000000000002
 21
235.5105516132644
 31
0.0
  0
LINE
  5
2B6
330
1F
100
AcDbEntity
  8
0
  6
Continuous
 62
     7
100
AcDbLine
 10
-140.4000000000001
 20
234.5105516132644
 30
0.0
 11
-140.4000000000001
 21
235.0105516132644
 31
0.0
  0
LINE
  5
2B7
330
1F
100
AcDbEntity
  8
0
  6
Continuous
 62
     7
100
AcDbLine
 10
-140.4000000000001
 20
235.0105516132644
 30
0.0
 11
-140.4000000000002
 21
235.3105516132643
 31
0.0
  0
LINE
  5
2B8
330
1F
100
AcDbEntity
  8
0
  6
Continuous
 62
     7
100
AcDbLine
 10
-140.4000000000002
 20
233.8105516132644
 30
0.0
 11
-140.4000000000001
 21
234.5105516132644
 31
0.0
  0
LINE
  5
2B9
330
1F
100
AcDbEntity
  8
0
  6
Continuous
 62
     7
100
AcDbLine
 10
-116.9567120772125
 20
238.3358515488877
 30
0.0
 11
-117.5432879227877
 21
238.2058108146884
 31
0.0
  0
LINE
  5
2BA
330
1F
100
AcDbEntity
  8
0
  6
Continuous
 62
     7
100
AcDbLine
 10
-117.7000000000001
 20
236.6662913901804
 30
0.0
 11
-117.7000000000001
 21
219.3548118363484
 31
0.0
  0
LINE
  5
2BB
330
1F
100
AcDbEntity
  8
0
  6
Continuous
 62
     7
100
AcDbLine
 10
-121.0000000000002
 20
231.8105516132642
 30
0.0
 11
-121.0000000000002
 21
223.8105516132644
 31
0.0
  0
LINE
  5
2BC
330
1F
100
AcDbEntity
  8
0
  6
Continuous
 62
     7
100
AcDbLine
 10
-117.7000000000001
 20
213.0105516132645
 30
0.0
 11
-117.7000000000001
 21
215.0105516132644
 31
0.0
  0
LINE
  5
2BD
330
1F
100
AcDbEntity
  8
0
  6
Continuous
 62
     7
100
AcDbLine
 10
-117.7000000000001
 20
241.0105516132644
 30
0.0
 11
-117.7000000000001
 21
243.0105516132644
 31
0.0
  0
LINE
  5
2BE
330
1F
100
AcDbEntity
  8
0
  6
Continuous
 62
     7
100
AcDbLine
 10
-117.7000000000001
 20
216.6662913901804
 30
0.0
 11
-117.7000000000001
 21
215.0105516132644
 31
0.0
  0
LINE
  5
2BF
330
1F
100
AcDbEntity
  8
0
  6
Continuous
 62
     7
100
AcDbLine
 10
-119.7500000000001
 20
213.0105516132644
 30
0.0
 11
-119.7500000000001
 21
215.0105516132644
 31
0.0
  0
LINE
  5
2C0
330
1F
100
AcDbEntity
  8
0
  6
Continuous
 62
     7
100
AcDbLine
 10
-119.7500000000001
 20
215.0105516132644
 30
0.0
 11
-117.7000000000001
 21
215.0105516132644
 31
0.0
  0
LINE
  5
2C1
330
1F
100
AcDbEntity
  8
0
  6
Continuous
 62
     7
100
AcDbLine
 10
-117.0845236523483
 20
216.6932271712806
 30
0.0
 11
-117.415476347652
 21
216.8475529475877
 31
0.0
  0
LINE
  5
2C2
330
1F
100
AcDbEntity
  8
0
  6
Continuous
 62
     7
100
AcDbLine
 10
-116.8000000000001
 20
217.4899924762171
 30
0.0
 11
-116.8000000000001
 21
216.8744887286879
 31
0.0
  0
LINE
  5
2C3
330
1F
100
AcDbEntity
  8
0
  6
Continuous
 62
     7
100
AcDbLine
 10
-116.9567120772125
 20
218.3358515488877
 30
0.0
 11
-117.5432879227878
 21
218.2058108146884
 31
0.0
  0
LINE
  5
2C4
330
1F
100
AcDbEntity
  8
0
  6
Continuous
 62
     7
100
AcDbLine
 10
-116.8000000000001
 20
219.1466144978409
 30
0.0
 11
-116.8000000000001
 21
218.5311107503117
 31
0.0
  0
LINE
  5
2C5
330
1F
100
AcDbEntity
  8
0
  6
Continuous
 62
     7
100
AcDbLine
 10
-117.5432879227877
 20
217.8152924118404
 30
0.0
 11
-116.9567120772125
 21
217.6852516776411
 31
0.0
  0
LINE
  5
2C6
330
1F
100
AcDbEntity
  8
0
  6
Continuous
 62
     7
100
AcDbLine
 10
-117.415476347652
 20
239.1735502789411
 30
0.0
 11
-117.0845236523483
 21
239.3278760552482
 31
0.0
  0
LINE
  5
2C7
330
1F
100
AcDbEntity
  8
0
  6
Continuous
 62
     7
100
AcDbLine
 10
-117.5432879227877
 20
237.8152924118404
 30
0.0
 11
-116.9567120772125
 21
237.6852516776411
 31
0.0
  0
LINE
  5
2C8
330
1F
100
AcDbEntity
  8
0
  6
Continuous
 62
     7
100
AcDbLine
 10
-117.0845236523483
 20
236.6932271712806
 30
0.0
 11
-117.415476347652
 21
236.8475529475877
 31
0.0
  0
LINE
  5
2C9
330
1F
100
AcDbEntity
  8
0
  6
Continuous
 62
     7
100
AcDbLine
 10
-117.415476347652
 20
219.1735502789411
 30
0.0
 11
-117.0845236523483
 21
219.3278760552482
 31
0.0
  0
LINE
  5
2CA
330
1F
100
AcDbEntity
  8
0
  6
Continuous
 62
     7
100
AcDbLine
 10
-116.8000000000001
 20
237.4899924762171
 30
0.0
 11
-116.8000000000001
 21
236.8744887286879
 31
0.0
  0
LINE
  5
2CB
330
1F
100
AcDbEntity
  8
0
  6
Continuous
 62
     7
100
AcDbLine
 10
-116.8000000000001
 20
239.1466144978409
 30
0.0
 11
-116.8000000000001
 21
238.5311107503117
 31
0.0
  0
LINE
  5
2CC
330
1F
100
AcDbEntity
  8
0
  6
Continuous
 62
     7
100
AcDbLine
 10
-147.1000000000001
 20
213.0105516132644
 30
0.0
 11
-145.0500000000001
 21
213.0105516132644
 31
0.0
  0
LINE
  5
2CD
330
1F
100
AcDbEntity
  8
0
  6
Continuous
 62
     7
100
AcDbLine
 10
-144.6000000000001
 20
239.0105516132644
 30
0.0
 11
-144.6000000000001
 21
235.5105516132643
 31
0.0
  0
LINE
  5
2CE
330
1F
100
AcDbEntity
  8
0
  6
Continuous
 62
     7
100
AcDbLine
 10
-142.1500000000002
 20
236.9605516132644
 30
0.0
 11
-142.1500000000002
 21
235.4605516132644
 31
0.0
  0
LINE
  5
2CF
330
1F
100
AcDbEntity
  8
0
  6
Continuous
 62
     7
100
AcDbLine
 10
-142.6500000000002
 20
236.9605516132644
 30
0.0
 11
-142.6500000000002
 21
235.4605516132644
 31
0.0
  0
LINE
  5
2D0
330
1F
100
AcDbEntity
  8
0
  6
Continuous
 62
     7
100
AcDbLine
 10
-147.1000000000001
 20
236.5368343505073
 30
0.0
 11
-147.1000000000001
 21
239.4842688760213
 31
0.0
  0
LINE
  5
2D1
330
1F
100
AcDbEntity
  8
0
  6
Continuous
 62
     7
100
AcDbLine
 10
-147.1000000000001
 20
236.0105516132644
 30
0.0
 11
-147.1000000000001
 21
236.3842688760213
 31
0.0
  0
LINE
  5
2D2
330
1F
100
AcDbEntity
  8
0
  6
Continuous
 62
     7
100
AcDbLine
 10
-142.6500000000002
 20
237.6105516132644
 30
0.0
 11
-142.6500000000002
 21
237.1105516132645
 31
0.0
  0
LINE
  5
2D3
330
1F
100
AcDbEntity
  8
0
  6
Continuous
 62
     7
100
AcDbLine
 10
-142.6500000000002
 20
235.4605516132644
 30
0.0
 11
-142.1500000000002
 21
235.4605516132644
 31
0.0
  0
LINE
  5
2D4
330
1F
100
AcDbEntity
  8
0
  6
Continuous
 62
     7
100
AcDbLine
 10
-142.6500000000002
 20
235.3105516132644
 30
0.0
 11
-142.6500000000002
 21
234.8105516132645
 31
0.0
  0
LINE
  5
2D5
330
1F
100
AcDbEntity
  8
0
  6
Continuous
 62
     7
100
AcDbLine
 10
-142.6500000000002
 20
235.4605516132644
 30
0.0
 11
-142.6500000000002
 21
235.3105516132644
 31
0.0
  0
LINE
  5
2D6
330
1F
100
AcDbEntity
  8
0
  6
Continuous
 62
     7
100
AcDbLine
 10
-141.6500000000002
 20
232.3105516132642
 30
0.0
 11
-143.3000000000002
 21
232.3105516132642
 31
0.0
  0
LINE
  5
2D7
330
1F
100
AcDbEntity
  8
0
  6
Continuous
 62
     7
100
AcDbLine
 10
-142.1000000000001
 20
237.1105516132644
 30
0.0
 11
-142.6000000000001
 21
237.1105516132644
 31
0.0
  0
LINE
  5
2D8
330
1F
100
AcDbEntity
  8
0
  6
Continuous
 62
     7
100
AcDbLine
 10
-141.9500000000001
 20
237.1105516132644
 30
0.0
 11
-142.1000000000001
 21
237.1105516132644
 31
0.0
  0
LINE
  5
2D9
330
1F
100
AcDbEntity
  8
0
  6
Continuous
 62
     7
100
AcDbLine
 10
-141.1500000000002
 20
233.8105516132644
 30
0.0
 11
-141.1500000000002
 21
232.8105516132642
 31
0.0
  0
LINE
  5
2DA
330
1F
100
AcDbEntity
  8
0
  6
Continuous
 62
     7
100
AcDbLine
 10
-141.2000000000001
 20
237.1105516132644
 30
0.0
 11
-141.9500000000001
 21
237.1105516132644
 31
0.0
  0
LINE
  5
2DB
330
1F
100
AcDbEntity
  8
0
  6
Continuous
 62
     7
100
AcDbLine
 10
-141.1500000000002
 20
233.8105516132644
 30
0.0
 11
-140.9000000000001
 21
233.8105516132644
 31
0.0
  0
LINE
  5
2DC
330
1F
100
AcDbEntity
  8
0
  6
Continuous
 62
     7
100
AcDbLine
 10
-140.9000000000001
 20
233.8105516132644
 30
0.0
 11
-140.9000000000001
 21
234.8105516132645
 31
0.0
  0
LINE
  5
2DD
330
1F
100
AcDbEntity
  8
0
  6
Continuous
 62
     7
100
AcDbLine
 10
-140.9000000000001
 20
234.8105516132645
 30
0.0
 11
-142.6500000000002
 21
234.8105516132645
 31
0.0
  0
LINE
  5
2DE
330
1F
100
AcDbEntity
  8
0
  6
Continuous
 62
     7
100
AcDbLine
 10
-140.4000000000002
 20
237.1105516132644
 30
0.0
 11
-141.2000000000001
 21
237.1105516132644
 31
0.0
  0
LINE
  5
2DF
330
1F
100
AcDbEntity
  8
0
  6
Continuous
 62
     7
100
AcDbLine
 10
-142.6000000000001
 20
237.1105516132644
 30
0.0
 11
-142.6500000000002
 21
237.1105516132645
 31
0.0
  0
LINE
  5
2E0
330
1F
100
AcDbEntity
  8
0
  6
Continuous
 62
     7
100
AcDbLine
 10
-140.4000000000002
 20
237.6105516132644
 30
0.0
 11
-140.4000000000002
 21
237.1105516132644
 31
0.0
  0
LINE
  5
2E1
330
1F
100
AcDbEntity
  8
0
  6
Continuous
 62
     7
100
AcDbLine
 10
-140.4000000000002
 20
233.8105516132644
 30
0.0
 11
-140.9000000000001
 21
233.8105516132644
 31
0.0
  0
LINE
  5
2E2
330
1F
100
AcDbEntity
  8
0
  6
Continuous
 62
     7
100
AcDbLine
 10
-140.4000000000002
 20
235.3105516132643
 30
0.0
 11
-140.9000000000001
 21
234.8105516132645
 31
0.0
  0
LINE
  5
2E3
330
1F
100
AcDbEntity
  8
0
  6
Continuous
 62
     7
100
AcDbLine
 10
-140.4000000000002
 20
235.3105516132643
 30
0.0
 11
-142.6500000000002
 21
235.3105516132644
 31
0.0
  0
LINE
  5
2E4
330
1F
100
AcDbEntity
  8
1
  6
Continuous
 62
     7
100
AcDbLine
 10
0.0
 20
297.0000000000001
 30
0.0
 11
0.0
 21
0.0
 31
0.0
  0
LINE
  5
2E5
330
1F
100
AcDbEntity
  8
1
  6
Continuous
 62
     7
100
AcDbLine
 10
-189.0
 20
5.0
 30
0.0
 11
-5.0
 21
4.99999999999989
 31
0.0
  0
LINE
  5
2E6
330
1F
100
AcDbEntity
  8
1
  6
Continuous
 62
     7
100
AcDbLine
 10
-189.0
 20
20.0
 30
0.0
 11
-189.0
 21
5.0
 31
0.0
  0
LINE
  5
2E7
330
1F
100
AcDbEntity
  8
1
  6
Continuous
 62
     7
100
AcDbLine
 10
-49.0
 20
20.0
 30
0.0
 11
-49.0
 21
5.0
 31
0.0
  0
LINE
  5
2E8
102
{ACAD_REACTORS
330
438
102
}
330
1F
100
AcDbEntity
  8
1
  6
Continuous
 62
     7
100
AcDbLine
 10
-15.99036597792392
 20
10.07749983983263
 30
0.0
 11
-15.99036597792392
 21
14.92250016016737
 31
0.0
  0
LINE
  5
2E9
102
{ACAD_REACTORS
330
438
102
}
330
1F
100
AcDbEntity
  8
1
  6
Continuous
 62
     7
100
AcDbLine
 10
-14.15712516009421
 20
10.55800208038033
 30
0.0
 11
-15.49045849342741
 21
9.78877131114973
 31
0.0
  0
LINE
  5
2EA
102
{ACAD_REACTORS
330
438
102
}
330
1F
100
AcDbEntity
  8
1
  6
Continuous
 62
     7
100
AcDbLine
 10
-15.32369931125732
 20
10.65463653264794
 30
0.0
 11
-14.4902734624205
 21
11.13545913774624
 31
0.0
  0
LINE
  5
2EB
102
{ACAD_REACTORS
330
438
102
}
330
1F
100
AcDbEntity
  8
1
  6
Continuous
 62
     7
100
AcDbLine
 10
-15.32369931125732
 20
12.16666666666663
 30
0.0
 11
-15.32369931125732
 21
10.65463653264794
 31
0.0
  0
LINE
  5
2EC
102
{ACAD_REACTORS
330
438
102
}
330
1F
100
AcDbEntity
  8
1
  6
Continuous
 62
     7
100
AcDbLine
 10
-14.32369931125732
 20
12.16666666666663
 30
0.0
 11
-15.32369931125732
 21
12.16666666666663
 31
0.0
  0
LINE
  5
2ED
102
{ACAD_REACTORS
330
438
102
}
330
1F
100
AcDbEntity
  8
1
  6
Continuous
 62
     7
100
AcDbLine
 10
-15.32369931125732
 20
12.83333333333326
 30
0.0
 11
-14.32369931125732
 21
12.83333333333326
 31
0.0
  0
LINE
  5
2EE
102
{ACAD_REACTORS
330
438
102
}
330
1F
100
AcDbEntity
  8
1
  6
Continuous
 62
     7
100
AcDbLine
 10
-15.32369931125732
 20
14.34536346735195
 30
0.0
 11
-15.32369931125732
 21
12.83333333333326
 31
0.0
  0
LINE
  5
2EF
102
{ACAD_REACTORS
330
438
102
}
330
1F
100
AcDbEntity
  8
1
  6
Continuous
 62
     7
100
AcDbLine
 10
-14.4902734624205
 20
13.86454086225376
 30
0.0
 11
-15.32369931125732
 21
14.34536346735195
 31
0.0
  0
LINE
  5
2F0
102
{ACAD_REACTORS
330
438
102
}
330
1F
100
AcDbEntity
  8
1
  6
Continuous
 62
     7
100
AcDbLine
 10
-15.49045849342741
 20
15.21122868885027
 30
0.0
 11
-14.15712516009421
 21
14.44199791961944
 31
0.0
  0
LINE
  5
2F1
102
{ACAD_REACTORS
330
43B
102
}
330
1F
100
AcDbEntity
  8
1
  6
Continuous
 62
     7
100
AcDbLine
 10
-22.65703264459071
 20
10.84673060906323
 30
0.0
 11
-22.65703264459071
 21
14.15326939093666
 31
0.0
  0
LINE
  5
2F2
102
{ACAD_REACTORS
330
43B
102
}
330
1F
100
AcDbEntity
  8
1
  6
Continuous
 62
     7
100
AcDbLine
 10
-21.990365977924
 20
11.0392519172633
 30
0.0
 11
-21.990365977924
 21
10.84673060906323
 31
0.0
  0
LINE
  5
2F3
102
{ACAD_REACTORS
330
43B
102
}
330
1F
100
AcDbEntity
  8
1
  6
Continuous
 62
     7
100
AcDbLine
 10
-21.990365977924
 20
14.15326939093666
 30
0.0
 11
-21.990365977924
 21
11.0392519172633
 31
0.0
  0
LINE
  5
2F4
102
{ACAD_REACTORS
330
439
102
}
330
1F
100
AcDbEntity
  8
1
  6
Continuous
 62
     7
100
AcDbLine
 10
-18.8236067957539
 20
8.44261746499581
 30
0.0
 11
-20.99018094691701
 21
9.69256409066691
 31
0.0
  0
LINE
  5
2F5
102
{ACAD_REACTORS
330
439
102
}
330
1F
100
AcDbEntity
  8
1
  6
Continuous
 62
     7
100
AcDbLine
 10
-20.65703264459071
 20
10.2700211480327
 30
0.0
 11
-18.49045849342741
 21
9.0200745223616
 31
0.0
  0
LINE
  5
2F6
102
{ACAD_REACTORS
330
439
102
}
330
1F
100
AcDbEntity
  8
1
  6
Continuous
 62
     7
100
AcDbLine
 10
-20.65703264459071
 20
14.92250016016737
 30
0.0
 11
-20.65703264459071
 21
10.2700211480327
 31
0.0
  0
LINE
  5
2F7
102
{ACAD_REACTORS
330
439
102
}
330
1F
100
AcDbEntity
  8
1
  6
Continuous
 62
     7
100
AcDbLine
 10
-21.32369931125732
 20
10.27002114803258
 30
0.0
 11
-21.32369931125732
 21
14.92250016016737
 31
0.0
  0
LINE
  5
2F8
102
{ACAD_REACTORS
330
43A
102
}
330
1F
100
AcDbEntity
  8
1
  6
Continuous
 62
     7
100
AcDbLine
 10
-17.15146632821401
 20
15.86370041827229
 30
0.0
 11
-18.32369931125732
 21
13.83333333333326
 31
0.0
  0
LINE
  5
2F9
102
{ACAD_REACTORS
330
43A
102
}
330
1F
100
AcDbEntity
  8
1
  6
Continuous
 62
     7
100
AcDbLine
 10
-16.65703264459071
 20
9.3082690706018
 30
0.0
 11
-16.65703264459071
 21
15.73121731203457
 31
0.0
  0
LINE
  5
2FA
102
{ACAD_REACTORS
330
43A
102
}
330
1F
100
AcDbEntity
  8
1
  6
Continuous
 62
     7
100
AcDbLine
 10
-17.32369931125732
 20
12.5
 30
0.0
 11
-17.32369931125732
 21
9.3082690706018
 31
0.0
  0
LINE
  5
2FB
102
{ACAD_REACTORS
330
43A
102
}
330
1F
100
AcDbEntity
  8
1
  6
Continuous
 62
     7
100
AcDbLine
 10
-19.32369931125732
 20
10.84758507263291
 30
0.0
 11
-19.32369931125732
 21
12.5
 31
0.0
  0
LINE
  5
2FC
102
{ACAD_REACTORS
330
43A
102
}
330
1F
100
AcDbEntity
  8
1
  6
Continuous
 62
     7
100
AcDbLine
 10
-19.990365977924
 20
12.5
 30
0.0
 11
-19.990365977924
 21
10.84758507263291
 31
0.0
  0
LINE
  5
2FD
102
{ACAD_REACTORS
330
43A
102
}
330
1F
100
AcDbEntity
  8
1
  6
Continuous
 62
     7
100
AcDbLine
 10
-19.49593229430062
 20
15.86370041827229
 30
0.0
 11
-18.32369931125732
 21
13.83333333333326
 31
0.0
  0
LINE
  5
2FE
102
{ACAD_REACTORS
330
43A
102
}
330
1F
100
AcDbEntity
  8
1
  6
Continuous
 62
     7
100
AcDbLine
 10
-19.990365977924
 20
12.5
 30
0.0
 11
-19.990365977924
 21
15.73121731203457
 31
0.0
  0
LINE
  5
2FF
330
1F
100
AcDbEntity
  8
1
  6
Continuous
 62
     7
100
AcDbLine
 10
-18.32369931125732
 20
7.5
 30
0.0
 11
-26.74013458639891
 21
12.35563573565855
 31
0.0
  0
LINE
  5
300
330
1F
100
AcDbEntity
  8
1
  6
Continuous
 62
     7
100
AcDbLine
 10
-9.90726403611581
 20
12.35563573565855
 30
0.0
 11
-18.32369931125732
 21
7.5
 31
0.0
  0
LINE
  5
301
330
1F
100
AcDbEntity
  8
1
  6
Continuous
 62
     7
100
AcDbLine
 10
-18.32369931125732
 20
17.5
 30
0.0
 11
-9.90726403611581
 21
12.64436426434133
 31
0.0
  0
LINE
  5
302
330
1F
100
AcDbEntity
  8
1
  6
Continuous
 62
     7
100
AcDbLine
 10
-26.74013458639891
 20
12.64436426434133
 30
0.0
 11
-18.32369931125732
 21
17.5
 31
0.0
  0
LINE
  5
303
102
{ACAD_REACTORS
330
43A
102
}
330
1F
100
AcDbEntity
  8
1
  6
Continuous
 62
     7
100
AcDbLine
 10
-19.32369931125732
 20
14.23205080756884
 30
0.0
 11
-19.32369931125732
 21
12.5
 31
0.0
  0
LINE
  5
304
102
{ACAD_REACTORS
330
43A
102
}
330
1F
100
AcDbEntity
  8
1
  6
Continuous
 62
     7
100
AcDbLine
 10
-18.46803687855481
 20
12.75
 30
0.0
 11
-19.32369931125732
 21
14.23205080756884
 31
0.0
  0
LINE
  5
305
102
{ACAD_REACTORS
330
43A
102
}
330
1F
100
AcDbEntity
  8
1
  6
Continuous
 62
     7
100
AcDbLine
 10
-17.32369931125732
 20
14.23205080756884
 30
0.0
 11
-18.1793617439599
 21
12.75
 31
0.0
  0
LINE
  5
306
102
{ACAD_REACTORS
330
43A
102
}
330
1F
100
AcDbEntity
  8
1
  6
Continuous
 62
     7
100
AcDbLine
 10
-17.32369931125732
 20
12.5
 30
0.0
 11
-17.32369931125732
 21
14.23205080756884
 31
0.0
  0
LINE
  5
307
330
1F
100
AcDbEntity
  8
1
  6
Continuous
 62
     7
100
AcDbLine
 10
-31.6473986225146
 20
20.0
 30
0.0
 11
-31.6473986225146
 21
5.0
 31
0.0
  0
LINE
  5
308
330
1F
100
AcDbEntity
  8
1
  6
Continuous
 62
     7
100
AcDbLine
 10
-189.0
 20
20.0
 30
0.0
 11
-5.0
 21
20.0
 31
0.0
  0
LINE
  5
309
330
1F
100
AcDbEntity
  8
1
  6
Continuous
 62
     7
100
AcDbLine
 10
-159.0
 20
20.0
 30
0.0
 11
-159.0
 21
5.0
 31
0.0
  0
LINE
  5
30A
330
1F
100
AcDbEntity
  8
1
  6
Continuous
 62
     7
100
AcDbLine
 10
-189.0
 20
12.5
 30
0.0
 11
-159.0
 21
12.5
 31
0.0
  0
LINE
  5
30B
330
1F
100
AcDbEntity
  8
1
  6
Continuous
 62
     7
100
AcDbLine
 10
-210.0000000000001
 20
148.4999999999998
 30
0.0
 11
-195.0000000000001
 21
148.4999999999998
 31
0.0
  0
LINE
  5
30C
330
1F
100
AcDbEntity
  8
1
  6
Continuous
 62
     7
100
AcDbLine
 10
0.0
 20
0.0
 30
0.0
 11
0.0
 21
297.0000000000001
 31
0.0
  0
LINE
  5
30D
330
1F
100
AcDbEntity
  8
1
  6
Continuous
 62
     7
100
AcDbLine
 10
-210.0000000000001
 20
0.0
 30
0.0
 11
0.0
 21
0.0
 31
0.0
  0
LINE
  5
30E
330
1F
100
AcDbEntity
  8
1
  6
Continuous
 62
     7
100
AcDbLine
 10
-210.0000000000001
 20
297.0000000000001
 30
0.0
 11
-210.0000000000001
 21
0.0
 31
0.0
  0
LINE
  5
30F
330
1F
100
AcDbEntity
  8
1
  6
Continuous
 62
     7
100
AcDbLine
 10
0.0
 20
297.0000000000001
 30
0.0
 11
-210.0000000000001
 21
297.0000000000001
 31
0.0
  0
LINE
  5
310
330
1F
100
AcDbEntity
  8
1
  6
Continuous
 62
     7
100
AcDbLine
 10
-5.0
 20
4.99999999999989
 30
0.0
 11
-5.0
 21
292.0000000000001
 31
0.0
  0
LINE
  5
311
330
1F
100
AcDbEntity
  8
1
  6
Continuous
 62
     7
100
AcDbLine
 10
-5.0
 20
292.0000000000001
 30
0.0
 11
-189.0
 21
292.0000000000001
 31
0.0
  0
LINE
  5
312
330
1F
100
AcDbEntity
  8
1
  6
Continuous
 62
     7
100
AcDbLine
 10
-189.0
 20
292.0000000000001
 30
0.0
 11
-189.0
 21
5.0
 31
0.0
  0
LINE
  5
313
330
1F
100
AcDbEntity
  8
1
  6
Continuous
 62
     7
100
AcDbLine
 10
-189.0
 20
40.0
 30
0.0
 11
-189.0
 21
5.0
 31
0.0
  0
LINE
  5
314
330
1F
100
AcDbEntity
  8
1
  6
Continuous
 62
     7
100
AcDbLine
 10
-189.0
 20
25.0
 30
0.0
 11
-5.0
 21
25.0
 31
0.0
  0
LINE
  5
315
330
1F
100
AcDbEntity
  8
1
  6
Continuous
 62
     7
100
AcDbLine
 10
-182.0
 20
20.0
 30
0.0
 11
-182.0
 21
25.0
 31
0.0
  0
LINE
  5
316
330
1F
100
AcDbEntity
  8
1
  6
Continuous
 62
     7
100
AcDbLine
 10
-163.9999999999999
 20
20.0
 30
0.0
 11
-163.9999999999999
 21
25.0
 31
0.0
  0
LINE
  5
317
330
1F
100
AcDbEntity
  8
1
  6
Continuous
 62
     7
100
AcDbLine
 10
-189.0
 20
30.0
 30
0.0
 11
-5.0
 21
30.0
 31
0.0
  0
LINE
  5
318
330
1F
100
AcDbEntity
  8
1
  6
Continuous
 62
     7
100
AcDbLine
 10
-182.0
 20
25.0
 30
0.0
 11
-182.0
 21
30.0
 31
0.0
  0
LINE
  5
319
330
1F
100
AcDbEntity
  8
1
  6
Continuous
 62
     7
100
AcDbLine
 10
-163.9999999999999
 20
25.0
 30
0.0
 11
-163.9999999999999
 21
30.0
 31
0.0
  0
LINE
  5
31A
330
1F
100
AcDbEntity
  8
1
  6
Continuous
 62
     7
100
AcDbLine
 10
-189.0
 20
35.0
 30
0.0
 11
-5.0
 21
35.0
 31
0.0
  0
LINE
  5
31B
330
1F
100
AcDbEntity
  8
1
  6
Continuous
 62
     7
100
AcDbLine
 10
-182.0
 20
30.0
 30
0.0
 11
-182.0
 21
35.0
 31
0.0
  0
LINE
  5
31C
330
1F
100
AcDbEntity
  8
1
  6
Continuous
 62
     7
100
AcDbLine
 10
-163.9999999999999
 20
30.0
 30
0.0
 11
-163.9999999999999
 21
35.0
 31
0.0
  0
LINE
  5
31D
330
1F
100
AcDbEntity
  8
1
  6
Continuous
 62
     7
100
AcDbLine
 10
-189.0
 20
40.0
 30
0.0
 11
-5.0
 21
40.0
 31
0.0
  0
LINE
  5
31E
330
1F
100
AcDbEntity
  8
1
  6
Continuous
 62
     7
100
AcDbLine
 10
-182.0
 20
35.0
 30
0.0
 11
-182.0
 21
40.0
 31
0.0
  0
LINE
  5
31F
330
1F
100
AcDbEntity
  8
1
  6
Continuous
 62
     7
100
AcDbLine
 10
-163.9999999999999
 20
35.0
 30
0.0
 11
-163.9999999999999
 21
40.0
 31
0.0
  0
LINE
  5
320
330
1F
100
AcDbEntity
  8
2
  6
DASHED
 62
     4
100
AcDbLine
 10
-129.6750000000001
 20
93.90935674649502
 30
0.0
 11
-129.6750000000001
 21
94.90935674649502
 31
0.0
  0
LINE
  5
321
330
1F
100
AcDbEntity
  8
2
  6
DASHED
 62
     4
100
AcDbLine
 10
-130.0250000000001
 20
93.90683674649507
 30
0.0
 11
-130.0250000000001
 21
94.90935674649502
 31
0.0
  0
LINE
  5
322
330
1F
100
AcDbEntity
  8
2
  6
DASHED
 62
     4
100
AcDbLine
 10
-128.6550000000001
 20
93.90935674649502
 30
0.0
 11
-128.6550000000001
 21
94.90935674649502
 31
0.0
  0
LINE
  5
323
330
1F
100
AcDbEntity
  8
2
  6
DASHED
 62
     4
100
AcDbLine
 10
-129.0050000000001
 20
93.90683674649507
 30
0.0
 11
-129.0050000000001
 21
94.90935674649502
 31
0.0
  0
LINE
  5
324
330
1F
100
AcDbEntity
  8
2
  6
DASHED
 62
     4
100
AcDbLine
 10
-135.1250000000001
 20
93.90935674649502
 30
0.0
 11
-135.1250000000001
 21
94.90935674649502
 31
0.0
  0
LINE
  5
325
330
1F
100
AcDbEntity
  8
2
  6
DASHED
 62
     4
100
AcDbLine
 10
-134.7750000000001
 20
93.90683674649507
 30
0.0
 11
-134.7750000000001
 21
94.90935674649502
 31
0.0
  0
LINE
  5
326
330
1F
100
AcDbEntity
  8
2
  6
DASHED
 62
     4
100
AcDbLine
 10
-136.1450000000001
 20
93.90935674649502
 30
0.0
 11
-136.1450000000001
 21
94.90935674649502
 31
0.0
  0
LINE
  5
327
330
1F
100
AcDbEntity
  8
2
  6
DASHED
 62
     4
100
AcDbLine
 10
-135.7950000000001
 20
93.90683674649507
 30
0.0
 11
-135.7950000000001
 21
94.90935674649502
 31
0.0
  0
LINE
  5
328
330
1F
100
AcDbEntity
  8
2
  6
DASHED
 62
     4
100
AcDbLine
 10
-131.7150000000001
 20
93.90935674649502
 30
0.0
 11
-131.7150000000001
 21
94.90935674649502
 31
0.0
  0
LINE
  5
329
330
1F
100
AcDbEntity
  8
2
  6
DASHED
 62
     4
100
AcDbLine
 10
-132.0650000000001
 20
93.90683674649507
 30
0.0
 11
-132.0650000000001
 21
94.90935674649502
 31
0.0
  0
LINE
  5
32A
330
1F
100
AcDbEntity
  8
2
  6
DASHED
 62
     4
100
AcDbLine
 10
-130.6950000000001
 20
93.90935674649502
 30
0.0
 11
-130.6950000000001
 21
94.90935674649502
 31
0.0
  0
LINE
  5
32B
330
1F
100
AcDbEntity
  8
2
  6
DASHED
 62
     4
100
AcDbLine
 10
-131.0450000000001
 20
93.90683674649507
 30
0.0
 11
-131.0450000000001
 21
94.90935674649502
 31
0.0
  0
LINE
  5
32C
330
1F
100
AcDbEntity
  8
2
  6
DASHED
 62
     4
100
AcDbLine
 10
-133.0850000000001
 20
93.90683674649507
 30
0.0
 11
-133.0850000000001
 21
94.90935674649502
 31
0.0
  0
LINE
  5
32D
330
1F
100
AcDbEntity
  8
2
  6
DASHED
 62
     4
100
AcDbLine
 10
-132.7350000000001
 20
93.90935674649502
 30
0.0
 11
-132.7350000000001
 21
94.90935674649502
 31
0.0
  0
LINE
  5
32E
330
1F
100
AcDbEntity
  8
2
  6
DASHED
 62
     4
100
AcDbLine
 10
-134.1050000000001
 20
93.90683674649507
 30
0.0
 11
-134.1050000000001
 21
94.90935674649502
 31
0.0
  0
LINE
  5
32F
330
1F
100
AcDbEntity
  8
2
  6
DASHED
 62
     4
100
AcDbLine
 10
-133.7550000000001
 20
93.90935674649502
 30
0.0
 11
-133.7550000000001
 21
94.90935674649502
 31
0.0
  0
LINE
  5
330
330
1F
100
AcDbEntity
  8
2
  6
DASHED
 62
     4
100
AcDbLine
 10
-130.0250000000001
 20
94.26462674649504
 30
0.0
 11
-129.6750000000001
 21
94.26462674649504
 31
0.0
  0
LINE
  5
331
330
1F
100
AcDbEntity
  8
2
  6
DASHED
 62
     4
100
AcDbLine
 10
-129.0050000000003
 20
94.26462674649504
 30
0.0
 11
-128.6550000000001
 21
94.26462674649504
 31
0.0
  0
LINE
  5
332
330
1F
100
AcDbEntity
  8
2
  6
DASHED
 62
     4
100
AcDbLine
 10
-130.0250000000001
 20
93.90935674649502
 30
0.0
 11
-129.6750000000001
 21
93.90935674649502
 31
0.0
  0
LINE
  5
333
330
1F
100
AcDbEntity
  8
2
  6
DASHED
 62
     4
100
AcDbLine
 10
-129.0050000000001
 20
93.90935674649502
 30
0.0
 11
-128.6550000000001
 21
93.90935674649502
 31
0.0
  0
LINE
  5
334
330
1F
100
AcDbEntity
  8
2
  6
DASHED
 62
     4
100
AcDbLine
 10
-134.7750000000001
 20
94.26462674649504
 30
0.0
 11
-135.1250000000001
 21
94.26462674649504
 31
0.0
  0
LINE
  5
335
330
1F
100
AcDbEntity
  8
2
  6
DASHED
 62
     4
100
AcDbLine
 10
-135.7950000000001
 20
94.26462674649504
 30
0.0
 11
-136.1450000000001
 21
94.26462674649504
 31
0.0
  0
LINE
  5
336
330
1F
100
AcDbEntity
  8
2
  6
DASHED
 62
     4
100
AcDbLine
 10
-135.1250000000001
 20
93.90935674649502
 30
0.0
 11
-134.7750000000001
 21
93.90935674649502
 31
0.0
  0
LINE
  5
337
330
1F
100
AcDbEntity
  8
2
  6
DASHED
 62
     4
100
AcDbLine
 10
-136.1450000000001
 20
93.90935674649502
 30
0.0
 11
-135.7950000000001
 21
93.90935674649502
 31
0.0
  0
LINE
  5
338
330
1F
100
AcDbEntity
  8
2
  6
DASHED
 62
     4
100
AcDbLine
 10
-131.0450000000001
 20
93.90935674649502
 30
0.0
 11
-130.6950000000001
 21
93.90935674649502
 31
0.0
  0
LINE
  5
339
330
1F
100
AcDbEntity
  8
2
  6
DASHED
 62
     4
100
AcDbLine
 10
-131.0450000000001
 20
94.26462674649504
 30
0.0
 11
-130.6950000000001
 21
94.26462674649504
 31
0.0
  0
LINE
  5
33A
330
1F
100
AcDbEntity
  8
2
  6
DASHED
 62
     4
100
AcDbLine
 10
-132.0650000000001
 20
93.90935674649502
 30
0.0
 11
-131.7150000000001
 21
93.90935674649502
 31
0.0
  0
LINE
  5
33B
330
1F
100
AcDbEntity
  8
2
  6
DASHED
 62
     4
100
AcDbLine
 10
-132.0650000000001
 20
94.26462674649504
 30
0.0
 11
-131.7150000000001
 21
94.26462674649504
 31
0.0
  0
LINE
  5
33C
330
1F
100
AcDbEntity
  8
2
  6
DASHED
 62
     4
100
AcDbLine
 10
-133.0850000000001
 20
93.90935674649502
 30
0.0
 11
-132.7350000000001
 21
93.90935674649502
 31
0.0
  0
LINE
  5
33D
330
1F
100
AcDbEntity
  8
2
  6
DASHED
 62
     4
100
AcDbLine
 10
-133.0850000000001
 20
94.26462674649504
 30
0.0
 11
-132.7350000000001
 21
94.26462674649504
 31
0.0
  0
LINE
  5
33E
330
1F
100
AcDbEntity
  8
2
  6
DASHED
 62
     4
100
AcDbLine
 10
-134.1050000000001
 20
93.90935674649502
 30
0.0
 11
-133.7550000000001
 21
93.90935674649502
 31
0.0
  0
LINE
  5
33F
330
1F
100
AcDbEntity
  8
2
  6
DASHED
 62
     4
100
AcDbLine
 10
-134.1050000000001
 20
94.26462674649504
 30
0.0
 11
-133.7550000000001
 21
94.26462674649504
 31
0.0
  0
LINE
  5
340
330
1F
100
AcDbEntity
  8
2
  6
DASHED
 62
     4
100
AcDbLine
 10
-127.6500000000001
 20
88.65408674649503
 30
0.0
 11
-128.0000000000001
 21
88.65408674649503
 31
0.0
  0
LINE
  5
341
330
1F
100
AcDbEntity
  8
2
  6
DASHED
 62
     4
100
AcDbLine
 10
-128.0000000000001
 20
88.00935674649504
 30
0.0
 11
-128.0000000000001
 21
89.01187674649505
 31
0.0
  0
LINE
  5
342
330
1F
100
AcDbEntity
  8
2
  6
DASHED
 62
     4
100
AcDbLine
 10
-127.6500000000001
 20
88.00935674649504
 30
0.0
 11
-127.6500000000001
 21
89.00935674649504
 31
0.0
  0
LINE
  5
343
330
1F
100
AcDbEntity
  8
1
  6
DASHED
 62
     7
100
AcDbLine
 10
-129.2500000000001
 20
88.00935674649504
 30
0.0
 11
-129.2500000000001
 21
89.01187674649505
 31
0.0
  0
LINE
  5
344
330
1F
100
AcDbEntity
  8
1
  6
DASHED
 62
     7
100
AcDbLine
 10
-129.2500000000001
 20
89.01187674649505
 30
0.0
 11
-126.4000000000001
 21
89.01187674649505
 31
0.0
  0
LINE
  5
345
330
1F
100
AcDbEntity
  8
2
  6
DASHED
 62
     4
100
AcDbLine
 10
-136.8000000000001
 20
89.01187674649505
 30
0.0
 11
-136.8000000000001
 21
88.00935674649504
 31
0.0
  0
LINE
  5
346
330
1F
100
AcDbEntity
  8
2
  6
DASHED
 62
     4
100
AcDbLine
 10
-137.1500000000001
 20
89.00935674649504
 30
0.0
 11
-137.1500000000001
 21
88.00935674649504
 31
0.0
  0
LINE
  5
347
330
1F
100
AcDbEntity
  8
2
  6
DASHED
 62
     4
100
AcDbLine
 10
-136.8000000000001
 20
88.65408674649503
 30
0.0
 11
-137.1500000000001
 21
88.65408674649503
 31
0.0
  0
LINE
  5
348
330
1F
100
AcDbEntity
  8
1
  6
DASHED
 62
     7
100
AcDbLine
 10
-138.4000000000001
 20
89.01187674649505
 30
0.0
 11
-135.5500000000001
 21
89.01187674649505
 31
0.0
  0
LINE
  5
349
330
1F
100
AcDbEntity
  8
1
  6
DASHED
 62
     7
100
AcDbLine
 10
-135.5500000000001
 20
89.01187674649505
 30
0.0
 11
-135.5500000000001
 21
88.00935674649504
 31
0.0
  0
LINE
  5
34A
102
{ACAD_REACTORS
330
43D
102
}
330
1F
100
AcDbEntity
  8
1
  6
Continuous
 62
     2
100
AcDbLine
 10
-140.5000000000001
 20
213.5105516132646
 30
0.0
 11
-139.0000000000001
 21
213.5105516132646
 31
0.0
  0
LINE
  5
34B
102
{ACAD_REACTORS
330
43D
102
}
330
1F
100
AcDbEntity
  8
1
  6
Continuous
 62
     2
100
AcDbLine
 10
-139.0000000000001
 20
213.5105516132646
 30
0.0
 11
-139.7500000000001
 21
211.5105516132646
 31
0.0
  0
LINE
  5
34C
102
{ACAD_REACTORS
330
43D
102
}
330
1F
100
AcDbEntity
  8
1
  6
Continuous
 62
     2
100
AcDbLine
 10
-139.7500000000001
 20
211.5105516132646
 30
0.0
 11
-140.5000000000001
 21
213.5105516132646
 31
0.0
  0
LINE
  5
34D
102
{ACAD_REACTORS
330
43C
102
}
330
1F
100
AcDbEntity
  8
1
  6
Continuous
 62
     2
100
AcDbLine
 10
-125.05
 20
211.5105516132646
 30
0.0
 11
-125.8
 21
213.5105516132646
 31
0.0
  0
LINE
  5
34E
102
{ACAD_REACTORS
330
43C
102
}
330
1F
100
AcDbEntity
  8
1
  6
Continuous
 62
     2
100
AcDbLine
 10
-124.3
 20
213.5105516132646
 30
0.0
 11
-125.05
 21
211.5105516132646
 31
0.0
  0
LINE
  5
34F
102
{ACAD_REACTORS
330
43C
102
}
330
1F
100
AcDbEntity
  8
1
  6
Continuous
 62
     2
100
AcDbLine
 10
-125.8
 20
213.5105516132646
 30
0.0
 11
-124.3
 21
213.5105516132646
 31
0.0
  0
LINE
  5
350
330
1F
100
AcDbEntity
  8
2
  6
DASHED
 62
     4
100
AcDbLine
 10
-135.125
 20
225.5605516132644
 30
0.0
 11
-135.125
 21
224.5605516132644
 31
0.0
  0
LINE
  5
351
330
1F
100
AcDbEntity
  8
2
  6
DASHED
 62
     4
100
AcDbLine
 10
-134.775
 20
225.5630716132644
 30
0.0
 11
-134.775
 21
224.5605516132644
 31
0.0
  0
LINE
  5
352
330
1F
100
AcDbEntity
  8
2
  6
DASHED
 62
     4
100
AcDbLine
 10
-136.145
 20
225.5605516132644
 30
0.0
 11
-136.145
 21
224.5605516132644
 31
0.0
  0
LINE
  5
353
330
1F
100
AcDbEntity
  8
2
  6
DASHED
 62
     4
100
AcDbLine
 10
-135.795
 20
225.5630716132644
 30
0.0
 11
-135.795
 21
224.5605516132644
 31
0.0
  0
LINE
  5
354
330
1F
100
AcDbEntity
  8
2
  6
DASHED
 62
     4
100
AcDbLine
 10
-129.675
 20
225.5605516132644
 30
0.0
 11
-129.675
 21
224.5605516132644
 31
0.0
  0
LINE
  5
355
330
1F
100
AcDbEntity
  8
2
  6
DASHED
 62
     4
100
AcDbLine
 10
-130.025
 20
225.5630716132644
 30
0.0
 11
-130.025
 21
224.5605516132644
 31
0.0
  0
LINE
  5
356
330
1F
100
AcDbEntity
  8
2
  6
DASHED
 62
     4
100
AcDbLine
 10
-128.655
 20
225.5605516132644
 30
0.0
 11
-128.655
 21
224.5605516132644
 31
0.0
  0
LINE
  5
357
330
1F
100
AcDbEntity
  8
2
  6
DASHED
 62
     4
100
AcDbLine
 10
-129.005
 20
225.5630716132644
 30
0.0
 11
-129.005
 21
224.5605516132644
 31
0.0
  0
LINE
  5
358
330
1F
100
AcDbEntity
  8
2
  6
DASHED
 62
     4
100
AcDbLine
 10
-133.085
 20
225.5605516132644
 30
0.0
 11
-133.085
 21
224.5605516132644
 31
0.0
  0
LINE
  5
359
330
1F
100
AcDbEntity
  8
2
  6
DASHED
 62
     4
100
AcDbLine
 10
-132.735
 20
225.5630716132644
 30
0.0
 11
-132.735
 21
224.5605516132644
 31
0.0
  0
LINE
  5
35A
330
1F
100
AcDbEntity
  8
2
  6
DASHED
 62
     4
100
AcDbLine
 10
-134.105
 20
225.5605516132644
 30
0.0
 11
-134.105
 21
224.5605516132644
 31
0.0
  0
LINE
  5
35B
330
1F
100
AcDbEntity
  8
2
  6
DASHED
 62
     4
100
AcDbLine
 10
-133.755
 20
225.5630716132644
 30
0.0
 11
-133.755
 21
224.5605516132644
 31
0.0
  0
LINE
  5
35C
330
1F
100
AcDbEntity
  8
2
  6
DASHED
 62
     4
100
AcDbLine
 10
-131.715
 20
225.5630716132644
 30
0.0
 11
-131.715
 21
224.5605516132644
 31
0.0
  0
LINE
  5
35D
330
1F
100
AcDbEntity
  8
2
  6
DASHED
 62
     4
100
AcDbLine
 10
-132.065
 20
225.5605516132644
 30
0.0
 11
-132.065
 21
224.5605516132644
 31
0.0
  0
LINE
  5
35E
330
1F
100
AcDbEntity
  8
2
  6
DASHED
 62
     4
100
AcDbLine
 10
-130.695
 20
225.5630716132644
 30
0.0
 11
-130.695
 21
224.5605516132644
 31
0.0
  0
LINE
  5
35F
330
1F
100
AcDbEntity
  8
2
  6
DASHED
 62
     4
100
AcDbLine
 10
-131.045
 20
225.5605516132644
 30
0.0
 11
-131.045
 21
224.5605516132644
 31
0.0
  0
LINE
  5
360
330
1F
100
AcDbEntity
  8
2
  6
DASHED
 62
     4
100
AcDbLine
 10
-134.775
 20
225.2052816132644
 30
0.0
 11
-135.125
 21
225.2052816132644
 31
0.0
  0
LINE
  5
361
330
1F
100
AcDbEntity
  8
2
  6
DASHED
 62
     4
100
AcDbLine
 10
-135.795
 20
225.2052816132644
 30
0.0
 11
-136.145
 21
225.2052816132644
 31
0.0
  0
LINE
  5
362
330
1F
100
AcDbEntity
  8
2
  6
DASHED
 62
     4
100
AcDbLine
 10
-134.775
 20
225.5605516132644
 30
0.0
 11
-135.125
 21
225.5605516132644
 31
0.0
  0
LINE
  5
363
330
1F
100
AcDbEntity
  8
2
  6
DASHED
 62
     4
100
AcDbLine
 10
-135.795
 20
225.5605516132644
 30
0.0
 11
-136.145
 21
225.5605516132644
 31
0.0
  0
LINE
  5
364
330
1F
100
AcDbEntity
  8
2
  6
DASHED
 62
     4
100
AcDbLine
 10
-130.025
 20
225.2052816132644
 30
0.0
 11
-129.675
 21
225.2052816132644
 31
0.0
  0
LINE
  5
365
330
1F
100
AcDbEntity
  8
2
  6
DASHED
 62
     4
100
AcDbLine
 10
-129.005
 20
225.2052816132644
 30
0.0
 11
-128.655
 21
225.2052816132644
 31
0.0
  0
LINE
  5
366
330
1F
100
AcDbEntity
  8
2
  6
DASHED
 62
     4
100
AcDbLine
 10
-129.675
 20
225.5605516132644
 30
0.0
 11
-130.025
 21
225.5605516132644
 31
0.0
  0
LINE
  5
367
330
1F
100
AcDbEntity
  8
2
  6
DASHED
 62
     4
100
AcDbLine
 10
-128.655
 20
225.5605516132644
 30
0.0
 11
-129.0050000000001
 21
225.5605516132644
 31
0.0
  0
LINE
  5
368
330
1F
100
AcDbEntity
  8
2
  6
DASHED
 62
     4
100
AcDbLine
 10
-133.755
 20
225.5605516132644
 30
0.0
 11
-134.105
 21
225.5605516132644
 31
0.0
  0
LINE
  5
369
330
1F
100
AcDbEntity
  8
2
  6
DASHED
 62
     4
100
AcDbLine
 10
-133.755
 20
225.2052816132644
 30
0.0
 11
-134.105
 21
225.2052816132644
 31
0.0
  0
LINE
  5
36A
330
1F
100
AcDbEntity
  8
2
  6
DASHED
 62
     4
100
AcDbLine
 10
-132.735
 20
225.5605516132644
 30
0.0
 11
-133.085
 21
225.5605516132644
 31
0.0
  0
LINE
  5
36B
330
1F
100
AcDbEntity
  8
2
  6
DASHED
 62
     4
100
AcDbLine
 10
-132.735
 20
225.2052816132644
 30
0.0
 11
-133.085
 21
225.2052816132644
 31
0.0
  0
LINE
  5
36C
330
1F
100
AcDbEntity
  8
2
  6
DASHED
 62
     4
100
AcDbLine
 10
-131.715
 20
225.5605516132644
 30
0.0
 11
-132.065
 21
225.5605516132644
 31
0.0
  0
LINE
  5
36D
330
1F
100
AcDbEntity
  8
2
  6
DASHED
 62
     4
100
AcDbLine
 10
-131.715
 20
225.2052816132644
 30
0.0
 11
-132.065
 21
225.2052816132644
 31
0.0
  0
LINE
  5
36E
330
1F
100
AcDbEntity
  8
2
  6
DASHED
 62
     4
100
AcDbLine
 10
-130.695
 20
225.5605516132644
 30
0.0
 11
-131.045
 21
225.5605516132644
 31
0.0
  0
LINE
  5
36F
330
1F
100
AcDbEntity
  8
2
  6
DASHED
 62
     4
100
AcDbLine
 10
-130.695
 20
225.2052816132644
 30
0.0
 11
-131.045
 21
225.2052816132644
 31
0.0
  0
LINE
  5
370
330
1F
100
AcDbEntity
  8
2
  6
DASHED
 62
     4
100
AcDbLine
 10
-128.0
 20
230.4580316132644
 30
0.0
 11
-128.0
 21
231.4605516132644
 31
0.0
  0
LINE
  5
371
330
1F
100
AcDbEntity
  8
2
  6
DASHED
 62
     4
100
AcDbLine
 10
-127.65
 20
230.4605516132644
 30
0.0
 11
-127.65
 21
231.4605516132644
 31
0.0
  0
LINE
  5
372
330
1F
100
AcDbEntity
  8
2
  6
DASHED
 62
     4
100
AcDbLine
 10
-128.0
 20
230.8158216132644
 30
0.0
 11
-127.65
 21
230.8158216132644
 31
0.0
  0
LINE
  5
373
330
1F
100
AcDbEntity
  8
1
  6
DASHED
 62
     7
100
AcDbLine
 10
-126.4
 20
230.4580316132644
 30
0.0
 11
-129.25
 21
230.4580316132644
 31
0.0
  0
LINE
  5
374
330
1F
100
AcDbEntity
  8
1
  6
DASHED
 62
     7
100
AcDbLine
 10
-129.25
 20
230.4580316132644
 30
0.0
 11
-129.2500000000001
 21
231.4605516132644
 31
0.0
  0
LINE
  5
375
330
1F
100
AcDbEntity
  8
2
  6
DASHED
 62
     4
100
AcDbLine
 10
-137.15
 20
230.8158216132644
 30
0.0
 11
-136.8
 21
230.8158216132644
 31
0.0
  0
LINE
  5
376
330
1F
100
AcDbEntity
  8
2
  6
DASHED
 62
     4
100
AcDbLine
 10
-136.8
 20
231.4605516132644
 30
0.0
 11
-136.8
 21
230.4580316132644
 31
0.0
  0
LINE
  5
377
330
1F
100
AcDbEntity
  8
2
  6
DASHED
 62
     4
100
AcDbLine
 10
-137.15
 20
231.4605516132644
 30
0.0
 11
-137.15
 21
230.4605516132644
 31
0.0
  0
LINE
  5
378
330
1F
100
AcDbEntity
  8
1
  6
DASHED
 62
     7
100
AcDbLine
 10
-135.55
 20
230.4580316132644
 30
0.0
 11
-138.4
 21
230.4580316132644
 31
0.0
  0
LINE
  5
379
330
1F
100
AcDbEntity
  8
1
  6
DASHED
 62
     7
100
AcDbLine
 10
-135.5500000000001
 20
231.4605516132644
 30
0.0
 11
-135.55
 21
230.4580316132644
 31
0.0
  0
ARC
  5
37A
330
1F
100
AcDbEntity
  8
0
  6
Continuous
 62
     7
100
AcDbCircle
 10
-117.5000000000001
 20
101.459356746495
 30
0.0
 40
0.2000000000000028
100
AcDbArc
 50
180.0
 51
257.5000000000075
  0
ARC
  5
37B
330
1F
100
AcDbEntity
  8
0
  6
Continuous
 62
     7
100
AcDbCircle
 10
-117.5000000000001
 20
102.803616969579
 30
0.0
 40
0.2000000000000028
100
AcDbArc
 50
180.0
 51
294.9999999999807
  0
ARC
  5
37C
330
1F
100
AcDbEntity
  8
0
  6
Continuous
 62
     7
100
AcDbCircle
 10
-122.3000000000001
 20
101.859356746495
 30
0.0
 40
2.799999999999997
100
AcDbArc
 50
0.0
 51
90.0
  0
ARC
  5
37D
330
1F
100
AcDbEntity
  8
0
  6
Continuous
 62
     7
100
AcDbCircle
 10
-141.1500000000002
 20
79.25935674649504
 30
0.0
 40
1.0
100
AcDbArc
 50
180.0
 51
270.0
  0
ARC
  5
37E
330
1F
100
AcDbEntity
  8
0
  6
Continuous
 62
     7
100
AcDbCircle
 10
-117.5000000000001
 20
81.45935674649496
 30
0.0
 40
0.2000000000000024
100
AcDbArc
 50
102.4999999999934
 51
180.0
  0
ARC
  5
37F
330
1F
100
AcDbEntity
  8
0
  6
Continuous
 62
     7
100
AcDbCircle
 10
-123.6500000000002
 20
79.25935674649504
 30
0.0
 40
1.0
100
AcDbArc
 50
270.0
 51
0.0
  0
ARC
  5
380
330
1F
100
AcDbEntity
  8
0
  6
Continuous
 62
     7
100
AcDbCircle
 10
-142.5000000000001
 20
101.859356746495
 30
0.0
 40
2.800000000000011
100
AcDbArc
 50
90.0
 51
180.0
  0
ARC
  5
381
330
1F
100
AcDbEntity
  8
0
  6
Continuous
 62
     7
100
AcDbCircle
 10
-120.5000000000001
 20
86.65935674649515
 30
0.0
 40
1.0
100
AcDbArc
 50
270.0
 51
0.0
  0
ARC
  5
382
330
1F
100
AcDbEntity
  8
0
  6
Continuous
 62
     7
100
AcDbCircle
 10
-117.0000000000001
 20
102.5954196310715
 30
0.0
 40
0.199999999999932
100
AcDbArc
 50
46.66077701319558
 51
114.999999999991
  0
ARC
  5
383
330
1F
100
AcDbEntity
  8
0
  6
Continuous
 62
     7
100
AcDbCircle
 10
-117.0000000000001
 20
102.5954196310715
 30
0.0
 40
0.2000000000000028
100
AcDbArc
 50
0.0
 51
46.66077701319558
  0
ARC
  5
384
330
1F
100
AcDbEntity
  8
0
  6
Continuous
 62
     7
100
AcDbCircle
 10
-117.0000000000001
 20
101.9799158835423
 30
0.0
 40
0.2000000000000163
100
AcDbArc
 50
282.4999999999925
 51
0.0
  0
ARC
  5
385
330
1F
100
AcDbEntity
  8
0
  6
Continuous
 62
     7
100
AcDbCircle
 10
-117.0000000000001
 20
100.9387976094477
 30
0.0
 40
0.2000000000000028
100
AcDbArc
 50
0.0
 51
77.5000000000066
  0
ARC
  5
386
330
1F
100
AcDbEntity
  8
0
  6
Continuous
 62
     7
100
AcDbCircle
 10
-117.0000000000001
 20
100.3232938619185
 30
0.0
 40
0.2000000000000413
100
AcDbArc
 50
245.0000000000193
 51
313.3392229867849
  0
ARC
  5
387
330
1F
100
AcDbEntity
  8
0
  6
Continuous
 62
     7
100
AcDbCircle
 10
-117.0000000000001
 20
80.9387976094477
 30
0.0
 40
0.2000000000000028
100
AcDbArc
 50
0.0
 51
77.50000000000485
  0
ARC
  5
388
330
1F
100
AcDbEntity
  8
0
  6
Continuous
 62
     7
100
AcDbCircle
 10
-117.0000000000001
 20
81.97991588354225
 30
0.0
 40
0.2000000000000024
100
AcDbArc
 50
282.4999999999935
 51
0.0
  0
ARC
  5
389
330
1F
100
AcDbEntity
  8
0
  6
Continuous
 62
     7
100
AcDbCircle
 10
-117.0000000000001
 20
80.32329386191847
 30
0.0
 40
0.1999999999999898
100
AcDbArc
 50
245.0000000000124
 51
313.3392229867932
  0
ARC
  5
38A
330
1F
100
AcDbEntity
  8
0
  6
Continuous
 62
     7
100
AcDbCircle
 10
-117.0000000000001
 20
82.59541963107148
 30
0.0
 40
0.2000000000000028
100
AcDbArc
 50
0.0
 51
46.66077701320676
  0
ARC
  5
38B
330
1F
100
AcDbEntity
  8
0
  6
Continuous
 62
     7
100
AcDbCircle
 10
-117.0000000000001
 20
100.3232938619185
 30
0.0
 40
0.2000000000000044
100
AcDbArc
 50
313.3392229867849
 51
0.0
  0
ARC
  5
38C
330
1F
100
AcDbEntity
  8
0
  6
Continuous
 62
     7
100
AcDbCircle
 10
-122.1500000000002
 20
85.15935674649515
 30
0.0
 40
0.5
100
AcDbArc
 50
90.0
 51
180.0
  0
ARC
  5
38D
330
1F
100
AcDbEntity
  8
0
  6
Continuous
 62
     7
100
AcDbCircle
 10
-117.5000000000001
 20
82.80361696957897
 30
0.0
 40
0.2000000000000028
100
AcDbArc
 50
180.0
 51
294.9999999999876
  0
ARC
  5
38E
330
1F
100
AcDbEntity
  8
0
  6
Continuous
 62
     7
100
AcDbCircle
 10
-117.5000000000001
 20
80.11509652341098
 30
0.0
 40
0.1999999999999641
100
AcDbArc
 50
65.00000000000897
 51
180.0
  0
ARC
  5
38F
330
1F
100
AcDbEntity
  8
0
  6
Continuous
 62
     7
100
AcDbCircle
 10
-144.3000000000001
 20
86.65935674649515
 30
0.0
 40
1.0
100
AcDbArc
 50
180.0
 51
270.0
  0
ARC
  5
390
330
1F
100
AcDbEntity
  8
0
  6
Continuous
 62
     7
100
AcDbCircle
 10
-142.6500000000002
 20
85.15935674649515
 30
0.0
 40
0.5
100
AcDbArc
 50
0.0
 51
90.0
  0
ARC
  5
391
330
1F
100
AcDbEntity
  8
0
  6
Continuous
 62
     7
100
AcDbCircle
 10
-117.5000000000001
 20
100.115096523411
 30
0.0
 40
0.1999999999999512
100
AcDbArc
 50
65.00000000000725
 51
180.0
  0
ARC
  5
392
330
1F
100
AcDbEntity
  8
0
  6
Continuous
 62
     7
100
AcDbCircle
 10
-117.5000000000001
 20
101.459356746495
 30
0.0
 40
0.2000000000000024
100
AcDbArc
 50
102.4999999999934
 51
180.0
  0
ARC
  5
393
330
1F
100
AcDbEntity
  8
0
  6
Continuous
 62
     7
100
AcDbCircle
 10
-117.5000000000001
 20
81.45935674649496
 30
0.0
 40
0.2000000000000028
100
AcDbArc
 50
180.0
 51
257.5000000000065
  0
ARC
  5
394
330
1F
100
AcDbEntity
  8
0
  6
Continuous
 62
     7
100
AcDbCircle
 10
-117.0000000000001
 20
80.32329386191847
 30
0.0
 40
0.1999999999999734
100
AcDbArc
 50
313.3392229867932
 51
0.0
  0
ARC
  5
395
330
1F
100
AcDbEntity
  8
0
  6
Continuous
 62
     7
100
AcDbCircle
 10
-117.0000000000001
 20
82.59541963107148
 30
0.0
 40
0.1999999999999734
100
AcDbArc
 50
46.66077701320676
 51
114.9999999999876
  0
ARC
  5
396
330
1F
100
AcDbEntity
  8
0
  6
Continuous
 62
     7
100
AcDbCircle
 10
-71.7999999999999
 20
185.641168503574
 30
0.0
 40
0.5
100
AcDbArc
 50
90.0
 51
180.0
  0
ARC
  5
397
330
1F
100
AcDbEntity
  8
0
  6
Continuous
 62
     7
100
AcDbCircle
 10
-53.80000000000007
 20
185.6411685035743
 30
0.0
 40
0.5
100
AcDbArc
 50
0.0
 51
90.0
  0
ARC
  5
398
330
1F
100
AcDbEntity
  8
0
  6
Continuous
 62
     7
100
AcDbCircle
 10
-46.39999999999992
 20
185.6411685035743
 30
0.0
 40
0.5
100
AcDbArc
 50
0.0
 51
90.0
  0
ARC
  5
399
330
1F
100
AcDbEntity
  8
0
  6
DASHED
 62
     7
100
AcDbCircle
 10
-138.0500000000001
 20
151.8411685035737
 30
0.0
 40
1.749999999999932
100
AcDbArc
 50
223.2918075932639
 51
316.708192406736
  0
ARC
  5
39A
330
1F
100
AcDbEntity
  8
0
  6
DASHED
 62
     7
100
AcDbCircle
 10
-138.0500000000001
 20
151.8411685035737
 30
0.0
 40
1.699999999999972
100
AcDbArc
 50
224.9008721559637
 51
254.6505229829914
  0
ARC
  5
39B
330
1F
100
AcDbEntity
  8
0
  6
DASHED
 62
     7
100
AcDbCircle
 10
-138.0500000000001
 20
151.8411685035737
 30
0.0
 40
1.700000000000011
100
AcDbArc
 50
254.6505229829914
 51
285.3494770170077
  0
ARC
  5
39C
330
1F
100
AcDbEntity
  8
0
  6
DASHED
 62
     7
100
AcDbCircle
 10
-138.0500000000001
 20
151.8411685035737
 30
0.0
 40
1.700000000000004
100
AcDbArc
 50
285.3494770170077
 51
315.0991278440337
  0
ARC
  5
39D
330
1F
100
AcDbEntity
  8
0
  6
DASHED
 62
     7
100
AcDbCircle
 10
-138.0500000000001
 20
151.8411685035737
 30
0.0
 40
1.400244132795619
100
AcDbArc
 50
288.7459500212085
 51
301.0193387034371
  0
ARC
  5
39E
330
1F
100
AcDbEntity
  8
0
  6
DASHED
 62
     7
100
AcDbCircle
 10
-126.7500000000001
 20
151.8411685035737
 30
0.0
 40
1.749999999999922
100
AcDbArc
 50
223.2918075932643
 51
316.708192406736
  0
ARC
  5
39F
330
1F
100
AcDbEntity
  8
0
  6
DASHED
 62
     7
100
AcDbCircle
 10
-126.7500000000001
 20
151.8411685035737
 30
0.0
 40
1.700000000000008
100
AcDbArc
 50
285.3494770170082
 51
315.0991278440363
  0
ARC
  5
3A0
330
1F
100
AcDbEntity
  8
0
  6
DASHED
 62
     7
100
AcDbCircle
 10
-126.7500000000001
 20
151.8411685035737
 30
0.0
 40
1.400244132795623
100
AcDbArc
 50
288.745950021209
 51
301.0193387034366
  0
ARC
  5
3A1
330
1F
100
AcDbEntity
  8
0
  6
DASHED
 62
     7
100
AcDbCircle
 10
-126.7500000000001
 20
151.8411685035737
 30
0.0
 40
1.699999999999972
100
AcDbArc
 50
224.9008721559637
 51
254.6505229829919
  0
ARC
  5
3A2
330
1F
100
AcDbEntity
  8
0
  6
DASHED
 62
     7
100
AcDbCircle
 10
-126.7500000000001
 20
151.8411685035737
 30
0.0
 40
1.400244132795546
100
AcDbArc
 50
238.9806612965635
 51
251.254049978791
  0
ARC
  5
3A3
330
1F
100
AcDbEntity
  8
0
  6
DASHED
 62
     7
100
AcDbCircle
 10
-126.7500000000001
 20
151.8411685035737
 30
0.0
 40
1.700000000000008
100
AcDbArc
 50
254.6505229829919
 51
285.3494770170082
  0
ARC
  5
3A4
330
1F
100
AcDbEntity
  8
0
  6
DASHED
 62
     7
100
AcDbCircle
 10
-138.0500000000001
 20
151.8411685035737
 30
0.0
 40
1.400244132795553
100
AcDbArc
 50
238.9806612965629
 51
251.2540499787905
  0
ARC
  5
3A5
330
1F
100
AcDbEntity
  8
0
  6
Continuous
 62
     7
100
AcDbCircle
 10
-128.6500000000002
 20
153.1411685035739
 30
0.0
 40
0.5
100
AcDbArc
 50
90.0
 51
180.0
  0
ARC
  5
3A6
330
1F
100
AcDbEntity
  8
0
  6
Continuous
 62
     7
100
AcDbCircle
 10
-121.4500000000001
 20
153.1411685035739
 30
0.0
 40
0.5
100
AcDbArc
 50
0.0
 51
90.0
  0
ARC
  5
3A7
330
1F
100
AcDbEntity
  8
0
  6
Continuous
 62
     7
100
AcDbCircle
 10
-121.8500000000002
 20
174.141168503574
 30
0.0
 40
1.0
100
AcDbArc
 50
0.0
 51
90.0
  0
ARC
  5
3A8
330
1F
100
AcDbEntity
  8
0
  6
Continuous
 62
     7
100
AcDbCircle
 10
-142.9500000000002
 20
174.141168503574
 30
0.0
 40
1.0
100
AcDbArc
 50
90.0
 51
180.0
  0
ARC
  5
3A9
330
1F
100
AcDbEntity
  8
0
  6
Continuous
 62
     7
100
AcDbCircle
 10
-141.6500000000002
 20
185.641168503574
 30
0.0
 40
0.5
100
AcDbArc
 50
90.0
 51
180.0
  0
ARC
  5
3AA
330
1F
100
AcDbEntity
  8
0
  6
Continuous
 62
     7
100
AcDbCircle
 10
-144.8000000000002
 20
185.641168503574
 30
0.0
 40
0.5
100
AcDbArc
 50
90.0
 51
180.0
  0
ARC
  5
3AB
330
1F
100
AcDbEntity
  8
0
  6
Continuous
 62
     7
100
AcDbCircle
 10
-123.1500000000002
 20
185.641168503574
 30
0.0
 40
0.5
100
AcDbArc
 50
0.0
 51
90.0
  0
ARC
  5
3AC
330
1F
100
AcDbEntity
  8
0
  6
Continuous
 62
     7
100
AcDbCircle
 10
-120.0000000000001
 20
185.641168503574
 30
0.0
 40
0.5
100
AcDbArc
 50
0.0
 51
90.0
  0
ARC
  5
3AD
330
1F
100
AcDbEntity
  8
0
  6
Continuous
 62
     7
100
AcDbCircle
 10
-143.3500000000001
 20
153.1411685035739
 30
0.0
 40
0.5
100
AcDbArc
 50
90.0
 51
180.0
  0
ARC
  5
3AE
330
1F
100
AcDbEntity
  8
0
  6
Continuous
 62
     7
100
AcDbCircle
 10
-136.1500000000002
 20
153.1411685035739
 30
0.0
 40
0.5
100
AcDbArc
 50
0.0
 51
90.0
  0
ARC
  5
3AF
330
1F
100
AcDbEntity
  8
0
  6
Continuous
 62
     7
100
AcDbCircle
 10
-142.9000000000001
 20
241.0105516132643
 30
0.0
 40
0.5
100
AcDbArc
 50
90.0
 51
180.0
  0
ARC
  5
3B0
330
1F
100
AcDbEntity
  8
0
  6
Continuous
 62
     7
100
AcDbCircle
 10
-143.9000000000001
 20
240.0105516132644
 30
0.0
 40
0.5
100
AcDbArc
 50
270.0
 51
0.0
  0
ARC
  5
3B1
330
1F
100
AcDbEntity
  8
0
  6
Continuous
 62
     7
100
AcDbCircle
 10
-147.0057636860286
 20
236.1105516132644
 30
0.0
 40
0.0999999999999943
100
AcDbArc
 50
270.0
 51
47.76316432406624
  0
ARC
  5
3B2
330
1F
100
AcDbEntity
  8
0
  6
Continuous
 62
     7
100
AcDbCircle
 10
-147.0057636860286
 20
239.9105516132644
 30
0.0
 40
0.1000000000000616
100
AcDbArc
 50
312.2368356759009
 51
90.0
  0
ARC
  5
3B3
330
1F
100
AcDbEntity
  8
0
  6
Continuous
 62
     7
100
AcDbCircle
 10
-146.8098604749459
 20
236.4605516132644
 30
0.0
 40
0.2999999999999631
100
AcDbArc
 50
194.7306766026439
 51
239.3314209686457
  0
ARC
  5
3B4
330
1F
100
AcDbEntity
  8
0
  6
Continuous
 62
     7
100
AcDbCircle
 10
-146.8098604749459
 20
239.5605516132644
 30
0.0
 40
0.3000000000000127
100
AcDbArc
 50
120.6685790313571
 51
165.2693233973771
  0
ARC
  5
3B5
330
1F
100
AcDbEntity
  8
0
  6
Continuous
 62
     7
100
AcDbCircle
 10
-146.8098604749459
 20
236.4605516132644
 30
0.0
 40
0.2999999999999989
100
AcDbArc
 50
65.00000000000018
 51
165.269323397398
  0
ARC
  5
3B6
330
1F
100
AcDbEntity
  8
0
  6
Continuous
 62
     7
100
AcDbCircle
 10
-146.8098604749459
 20
239.5605516132644
 30
0.0
 40
0.2999999999999631
100
AcDbArc
 50
194.7306766026439
 51
294.9999999999998
  0
ARC
  5
3B7
330
1F
100
AcDbEntity
  8
0
  6
Continuous
 62
     7
100
AcDbCircle
 10
-145.1000000000001
 20
221.8105516132644
 30
0.0
 40
0.5
100
AcDbArc
 50
180.0
 51
270.0
  0
ARC
  5
3B8
330
1F
100
AcDbEntity
  8
0
  6
Continuous
 62
     7
100
AcDbCircle
 10
-128.1500000000001
 20
241.0105516132643
 30
0.0
 40
0.4999999999998863
100
AcDbArc
 50
90.0
 51
180.0
  0
ARC
  5
3B9
330
1F
100
AcDbEntity
  8
0
  6
Continuous
 62
     7
100
AcDbCircle
 10
-136.6500000000001
 20
241.0105516132643
 30
0.0
 40
0.5
100
AcDbArc
 50
0.0
 51
90.0
  0
ARC
  5
3BA
330
1F
100
AcDbEntity
  8
0
  6
Continuous
 62
     7
100
AcDbCircle
 10
-146.8098604749459
 20
216.4605516132644
 30
0.0
 40
0.2999999999999631
100
AcDbArc
 50
194.7306766026439
 51
239.3314209686457
  0
ARC
  5
3BB
330
1F
100
AcDbEntity
  8
0
  6
Continuous
 62
     7
100
AcDbCircle
 10
-146.8098604749459
 20
216.4605516132644
 30
0.0
 40
0.2999999999999989
100
AcDbArc
 50
65.00000000000018
 51
165.2693233973771
  0
ARC
  5
3BC
330
1F
100
AcDbEntity
  8
0
  6
Continuous
 62
     7
100
AcDbCircle
 10
-146.8098604749459
 20
219.5605516132644
 30
0.0
 40
0.3000000000000127
100
AcDbArc
 50
120.6685790313571
 51
165.2693233973561
  0
ARC
  5
3BD
330
1F
100
AcDbEntity
  8
0
  6
Continuous
 62
     7
100
AcDbCircle
 10
-147.0057636860286
 20
216.1105516132644
 30
0.0
 40
0.0999999999999943
100
AcDbArc
 50
270.0
 51
47.76316432409908
  0
ARC
  5
3BE
330
1F
100
AcDbEntity
  8
0
  6
Continuous
 62
     7
100
AcDbCircle
 10
-147.0057636860286
 20
219.9105516132644
 30
0.0
 40
0.1000000000000616
100
AcDbArc
 50
312.2368356759009
 51
90.0
  0
ARC
  5
3BF
330
1F
100
AcDbEntity
  8
0
  6
Continuous
 62
     7
100
AcDbCircle
 10
-146.8098604749459
 20
219.5605516132644
 30
0.0
 40
0.2999999999999631
100
AcDbArc
 50
194.7306766026439
 51
294.9999999999998
  0
ARC
  5
3C0
330
1F
100
AcDbEntity
  8
0
  6
Continuous
 62
     7
100
AcDbCircle
 10
-119.7000000000001
 20
239.0105516132644
 30
0.0
 40
0.5
100
AcDbArc
 50
0.0
 51
90.0
  0
ARC
  5
3C1
330
1F
100
AcDbEntity
  8
0
  6
Continuous
 62
     7
100
AcDbCircle
 10
-121.5000000000002
 20
231.8105516132642
 30
0.0
 40
0.5
100
AcDbArc
 50
0.0
 51
90.0
  0
ARC
  5
3C2
330
1F
100
AcDbEntity
  8
0
  6
Continuous
 62
     7
100
AcDbCircle
 10
-121.9
 20
241.0105516132642
 30
0.0
 40
0.5
100
AcDbArc
 50
0.0
 51
90.0
  0
ARC
  5
3C3
330
1F
100
AcDbEntity
  8
0
  6
Continuous
 62
     7
100
AcDbCircle
 10
-123.1500000000002
 20
232.8105516132642
 30
0.0
 40
0.5
100
AcDbArc
 50
180.0
 51
270.0
  0
ARC
  5
3C4
330
1F
100
AcDbEntity
  8
0
  6
Continuous
 62
     7
100
AcDbCircle
 10
-120.9
 20
240.0105516132644
 30
0.0
 40
0.5
100
AcDbArc
 50
180.0
 51
270.0
  0
ARC
  5
3C5
330
1F
100
AcDbEntity
  8
0
  6
Continuous
 62
     7
100
AcDbCircle
 10
-119.7000000000001
 20
221.8105516132644
 30
0.0
 40
0.5
100
AcDbArc
 50
270.0
 51
0.0
  0
ARC
  5
3C6
330
1F
100
AcDbEntity
  8
0
  6
Continuous
 62
     7
100
AcDbCircle
 10
-124.9000000000002
 20
239.0105516132643
 30
0.0
 40
0.5
100
AcDbArc
 50
0.0
 51
90.0
  0
ARC
  5
3C7
330
1F
100
AcDbEntity
  8
0
  6
Continuous
 62
     7
100
AcDbCircle
 10
-133.6500000000002
 20
239.0105516132643
 30
0.0
 40
0.5
100
AcDbArc
 50
0.0
 51
90.0
  0
ARC
  5
3C8
330
1F
100
AcDbEntity
  8
0
  6
Continuous
 62
     7
100
AcDbCircle
 10
-144.1000000000001
 20
239.0105516132644
 30
0.0
 40
0.5
100
AcDbArc
 50
90.0
 51
180.0
  0
ARC
  5
3C9
330
1F
100
AcDbEntity
  8
0
  6
Continuous
 62
     7
100
AcDbCircle
 10
-131.1500000000002
 20
239.0105516132643
 30
0.0
 40
0.5
100
AcDbArc
 50
90.0
 51
180.0
  0
ARC
  5
3CA
330
1F
100
AcDbEntity
  8
0
  6
Continuous
 62
     7
100
AcDbCircle
 10
-135.6500000000001
 20
240.0105516132643
 30
0.0
 40
0.5
100
AcDbArc
 50
180.0
 51
270.0
  0
ARC
  5
3CB
330
1F
100
AcDbEntity
  8
0
  6
Continuous
 62
     7
100
AcDbCircle
 10
-139.9000000000002
 20
239.0105516132643
 30
0.0
 40
0.5
100
AcDbArc
 50
90.0
 51
180.0
  0
ARC
  5
3CC
330
1F
100
AcDbEntity
  8
0
  6
Continuous
 62
     7
100
AcDbCircle
 10
-129.1500000000001
 20
240.0105516132643
 30
0.0
 40
0.5
100
AcDbArc
 50
270.0
 51
0.0
  0
ARC
  5
3CD
330
1F
100
AcDbEntity
  8
0
  6
Continuous
 62
     7
100
AcDbCircle
 10
-117.5000000000001
 20
239.3548118363484
 30
0.0
 40
0.2000000000000028
100
AcDbArc
 50
180.0
 51
294.999999999991
  0
ARC
  5
3CE
330
1F
100
AcDbEntity
  8
0
  6
Continuous
 62
     7
100
AcDbCircle
 10
-117.5000000000001
 20
238.0105516132644
 30
0.0
 40
0.2000000000000024
100
AcDbArc
 50
102.4999999999934
 51
257.5000000000065
  0
ARC
  5
3CF
330
1F
100
AcDbEntity
  8
0
  6
Continuous
 62
     7
100
AcDbCircle
 10
-117.5000000000001
 20
218.0105516132644
 30
0.0
 40
0.2000000000000239
100
AcDbArc
 50
102.5000000000212
 51
257.5000000000065
  0
ARC
  5
3D0
330
1F
100
AcDbEntity
  8
0
  6
Continuous
 62
     7
100
AcDbCircle
 10
-121.5000000000002
 20
223.8105516132644
 30
0.0
 40
0.5
100
AcDbArc
 50
270.0
 51
0.0
  0
ARC
  5
3D1
330
1F
100
AcDbEntity
  8
0
  6
Continuous
 62
     7
100
AcDbCircle
 10
-117.5000000000001
 20
216.6662913901804
 30
0.0
 40
0.1999999999999641
100
AcDbArc
 50
65.00000000000897
 51
180.0
  0
ARC
  5
3D2
330
1F
100
AcDbEntity
  8
0
  6
Continuous
 62
     7
100
AcDbCircle
 10
-117.5000000000001
 20
219.3548118363484
 30
0.0
 40
0.2000000000000028
100
AcDbArc
 50
180.0
 51
294.999999999991
  0
ARC
  5
3D3
330
1F
100
AcDbEntity
  8
0
  6
Continuous
 62
     7
100
AcDbCircle
 10
-117.5000000000001
 20
236.6662913901804
 30
0.0
 40
0.1999999999999641
100
AcDbArc
 50
65.00000000000897
 51
180.0
  0
ARC
  5
3D4
330
1F
100
AcDbEntity
  8
0
  6
Continuous
 62
     7
100
AcDbCircle
 10
-117.0000000000001
 20
217.4899924762171
 30
0.0
 40
0.2000000000000028
100
AcDbArc
 50
0.0
 51
77.5000000000066
  0
ARC
  5
3D5
330
1F
100
AcDbEntity
  8
0
  6
Continuous
 62
     7
100
AcDbCircle
 10
-117.0000000000001
 20
216.8744887286879
 30
0.0
 40
0.2000000000000061
100
AcDbArc
 50
244.9999999999831
 51
0.0
  0
ARC
  5
3D6
330
1F
100
AcDbEntity
  8
0
  6
Continuous
 62
     7
100
AcDbCircle
 10
-117.0000000000001
 20
218.5311107503117
 30
0.0
 40
0.2000000000000302
100
AcDbArc
 50
282.4999999999916
 51
0.0
  0
ARC
  5
3D7
330
1F
100
AcDbEntity
  8
0
  6
Continuous
 62
     7
100
AcDbCircle
 10
-117.0000000000001
 20
219.1466144978409
 30
0.0
 40
0.2000000000000028
100
AcDbArc
 50
0.0
 51
115.0000000000169
  0
ARC
  5
3D8
330
1F
100
AcDbEntity
  8
0
  6
Continuous
 62
     7
100
AcDbCircle
 10
-117.0000000000001
 20
237.4899924762171
 30
0.0
 40
0.2000000000000028
100
AcDbArc
 50
0.0
 51
77.5000000000066
  0
ARC
  5
3D9
330
1F
100
AcDbEntity
  8
0
  6
Continuous
 62
     7
100
AcDbCircle
 10
-117.0000000000001
 20
236.8744887286879
 30
0.0
 40
0.2000000000000061
100
AcDbArc
 50
244.9999999999831
 51
0.0
  0
ARC
  5
3DA
330
1F
100
AcDbEntity
  8
0
  6
Continuous
 62
     7
100
AcDbCircle
 10
-117.0000000000001
 20
238.5311107503117
 30
0.0
 40
0.2000000000000302
100
AcDbArc
 50
282.4999999999916
 51
0.0
  0
ARC
  5
3DB
330
1F
100
AcDbEntity
  8
0
  6
Continuous
 62
     7
100
AcDbCircle
 10
-117.0000000000001
 20
239.1466144978409
 30
0.0
 40
0.2000000000000028
100
AcDbArc
 50
0.0
 51
115.0000000000169
  0
ARC
  5
3DC
330
1F
100
AcDbEntity
  8
0
  6
Continuous
 62
     7
100
AcDbCircle
 10
-143.3000000000002
 20
223.8105516132644
 30
0.0
 40
0.5
100
AcDbArc
 50
180.0
 51
270.0
  0
ARC
  5
3DD
330
1F
100
AcDbEntity
  8
0
  6
Continuous
 62
     7
100
AcDbCircle
 10
-145.1000000000001
 20
235.5105516132643
 30
0.0
 40
0.5
100
AcDbArc
 50
270.0
 51
0.0
  0
ARC
  5
3DE
330
1F
100
AcDbEntity
  8
0
  6
Continuous
 62
     7
100
AcDbCircle
 10
-141.6500000000002
 20
232.8105516132642
 30
0.0
 40
0.5
100
AcDbArc
 50
270.0
 51
0.0
  0
ARC
  5
3DF
330
1F
100
AcDbEntity
  8
0
  6
Continuous
 62
     7
100
AcDbCircle
 10
-145.1000000000001
 20
234.5105516132643
 30
0.0
 40
0.5
100
AcDbArc
 50
90.0
 51
180.0
  0
ARC
  5
3E0
330
1F
100
AcDbEntity
  8
0
  6
Continuous
 62
     7
100
AcDbCircle
 10
-143.3000000000002
 20
231.8105516132642
 30
0.0
 40
0.5
100
AcDbArc
 50
90.0
 51
180.0
  0
ARC
  5
3E1
102
{ACAD_REACTORS
330
438
102
}
330
1F
100
AcDbEntity
  8
1
  6
Continuous
 62
     7
100
AcDbCircle
 10
-14.32369931125732
 20
10.84673060906323
 30
0.0
 40
0.3333333333333198
100
AcDbArc
 50
299.9816393688342
 51
119.9816393688352
  0
ARC
  5
3E2
102
{ACAD_REACTORS
330
438
102
}
330
1F
100
AcDbEntity
  8
1
  6
Continuous
 62
     7
100
AcDbCircle
 10
-14.32369931125732
 20
12.5
 30
0.0
 40
0.3333333333333695
100
AcDbArc
 50
270.0
 51
90.0
  0
ARC
  5
3E3
102
{ACAD_REACTORS
330
438
102
}
330
1F
100
AcDbEntity
  8
1
  6
Continuous
 62
     7
100
AcDbCircle
 10
-14.32369931125732
 20
14.15326939093666
 30
0.0
 40
0.3333333333333569
100
AcDbArc
 50
240.0183606311553
 51
60.01836063115558
  0
ARC
  5
3E4
102
{ACAD_REACTORS
330
43B
102
}
330
1F
100
AcDbEntity
  8
1
  6
Continuous
 62
     7
100
AcDbCircle
 10
-22.32369931125732
 20
10.84673060906323
 30
0.0
 40
0.333333333333389
100
AcDbArc
 50
180.0
 51
0.0
  0
ARC
  5
3E5
102
{ACAD_REACTORS
330
43B
102
}
330
1F
100
AcDbEntity
  8
1
  6
Continuous
 62
     7
100
AcDbCircle
 10
-22.32369931125732
 20
14.15326939093666
 30
0.0
 40
0.3333333333333215
100
AcDbArc
 50
0.0
 51
180.0
  0
ARC
  5
3E6
102
{ACAD_REACTORS
330
439
102
}
330
1F
100
AcDbEntity
  8
1
  6
Continuous
 62
     7
100
AcDbCircle
 10
-18.65703264459071
 20
8.7313459936787
 30
0.0
 40
0.3333333333333567
100
AcDbArc
 50
240.0183606311536
 51
60.0183606311372
  0
ARC
  5
3E7
102
{ACAD_REACTORS
330
439
102
}
330
1F
100
AcDbEntity
  8
1
  6
Continuous
 62
     7
100
AcDbCircle
 10
-20.990365977924
 20
14.92250016016737
 30
0.0
 40
0.3333333333332895
100
AcDbArc
 50
0.0
 51
180.0
  0
ARC
  5
3E8
102
{ACAD_REACTORS
330
43A
102
}
330
1F
100
AcDbEntity
  8
1
  6
Continuous
 62
     7
100
AcDbCircle
 10
-16.921998857066
 20
15.73121731203457
 30
0.0
 40
0.2649662124752901
100
AcDbArc
 50
0.0
 51
149.9999999999712
  0
ARC
  5
3E9
102
{ACAD_REACTORS
330
43A
102
}
330
1F
100
AcDbEntity
  8
1
  6
Continuous
 62
     7
100
AcDbCircle
 10
-16.99036597792392
 20
9.3082690706018
 30
0.0
 40
0.3333333333334032
100
AcDbArc
 50
180.0
 51
0.0
  0
ARC
  5
3EA
102
{ACAD_REACTORS
330
43A
102
}
330
1F
100
AcDbEntity
  8
1
  6
Continuous
 62
     7
100
AcDbCircle
 10
-19.65703264459071
 20
10.84758507263291
 30
0.0
 40
0.3333333333332895
100
AcDbArc
 50
180.0
 51
0.0
  0
ARC
  5
3EB
102
{ACAD_REACTORS
330
43A
102
}
330
1F
100
AcDbEntity
  8
1
  6
Continuous
 62
     7
100
AcDbCircle
 10
-19.72539976544871
 20
15.73121731203457
 30
0.0
 40
0.2649662124752792
100
AcDbArc
 50
30.00000000001998
 51
180.0
  0
CIRCLE
  5
3EC
330
1F
100
AcDbEntity
  8
0
  6
Continuous
 62
     7
100
AcDbCircle
 10
-135.6500000000001
 20
101.459356746495
 30
0.0
 40
1.950000000000102
  0
CIRCLE
  5
3ED
330
1F
100
AcDbEntity
  8
0
  6
Continuous
 62
     7
100
AcDbCircle
 10
-142.1500000000001
 20
101.459356746495
 30
0.0
 40
1.950000000000102
  0
CIRCLE
  5
3EE
330
1F
100
AcDbEntity
  8
0
  6
Continuous
 62
     7
100
AcDbCircle
 10
-129.1500000000001
 20
101.459356746495
 30
0.0
 40
1.950000000000003
  0
CIRCLE
  5
3EF
330
1F
100
AcDbEntity
  8
0
  6
Continuous
 62
     7
100
AcDbCircle
 10
-122.6500000000001
 20
101.459356746495
 30
0.0
 40
1.950000000000003
  0
CIRCLE
  5
3F0
330
1F
100
AcDbEntity
  8
0
  6
Continuous
 62
     7
100
AcDbCircle
 10
-135.6500000000002
 20
218.0105516132644
 30
0.0
 40
1.950000000000017
  0
CIRCLE
  5
3F1
330
1F
100
AcDbEntity
  8
0
  6
Continuous
 62
     7
100
AcDbCircle
 10
-142.1500000000002
 20
218.0105516132644
 30
0.0
 40
1.950000000000017
  0
CIRCLE
  5
3F2
330
1F
100
AcDbEntity
  8
0
  6
Continuous
 62
     7
100
AcDbCircle
 10
-129.1500000000001
 20
218.0105516132644
 30
0.0
 40
1.950000000000017
  0
CIRCLE
  5
3F3
330
1F
100
AcDbEntity
  8
0
  6
Continuous
 62
     7
100
AcDbCircle
 10
-122.6500000000002
 20
218.0105516132644
 30
0.0
 40
1.950000000000017
  0
CIRCLE
  5
3F4
330
1F
100
AcDbEntity
  8
0
  6
Continuous
 62
     7
100
AcDbCircle
 10
-142.1500000000001
 20
101.459356746495
 30
0.0
 40
1.299999999999898
  0
CIRCLE
  5
3F5
330
1F
100
AcDbEntity
  8
0
  6
Continuous
 62
     7
100
AcDbCircle
 10
-135.6500000000001
 20
101.459356746495
 30
0.0
 40
1.299999999999898
  0
CIRCLE
  5
3F6
330
1F
100
AcDbEntity
  8
0
  6
Continuous
 62
     7
100
AcDbCircle
 10
-129.1500000000001
 20
101.459356746495
 30
0.0
 40
1.299999999999898
  0
CIRCLE
  5
3F7
330
1F
100
AcDbEntity
  8
0
  6
Continuous
 62
     7
100
AcDbCircle
 10
-122.6500000000001
 20
101.459356746495
 30
0.0
 40
1.299999999999898
  0
SPLINE
  5
3F8
330
1F
100
AcDbEntity
  8
0
  6
DASHED
 62
     7
100
AcDbSpline
210
0.0
220
0.0
230
1.0
 70
     8
 71
     3
 72
    11
 73
     7
 74
     5
 42
0.000000001
 43
0.0000000001
 44
0.00000001
 40
0.0
 40
0.0
 40
0.0
 40
0.0
 40
0.4429293085455556
 40
0.8643236247857629
 40
1.308555539072067
 40
1.728646439332836
 40
1.728646439332836
 40
1.728646439332836
 40
1.728646439332836
 10
-49.99999999999994
 20
150.2018088724984
 30
0.0
 10
-49.85476932416645
 20
150.2283896670669
 30
0.0
 10
-49.57136901498614
 20
150.2802589263496
 30
0.0
 10
-49.1423786379753
 20
150.3591563184067
 30
0.0
 10
-48.72092755646737
 20
150.4369595583437
 30
0.0
 10
-48.43767202337658
 20
150.4896122769695
 30
0.0
 10
-48.2999999999999
 20
150.5152033338095
 30
0.0
 11
-49.99999999999994
 21
150.2018088724984
 31
0.0
 11
-49.56431971909991
 21
150.2816152958253
 31
0.0
 11
-49.1498739083828
 21
150.3578244799491
 31
0.0
 11
-48.71303137488673
 21
150.4385127356503
 31
0.0
 11
-48.2999999999999
 21
150.5152033338095
 31
0.0
  0
ARC
  5
3F9
330
1F
100
AcDbEntity
  8
1
  6
Continuous
 62
     4
100
AcDbCircle
 10
-142.4249102551015
 20
163.9417478321781
 30
0.0
 40
0.0490206755352575
100
AcDbArc
 50
29.98163936887368
 51
150.0183606311263
  0
ARC
  5
3FA
330
1F
100
AcDbEntity
  8
1
  6
Continuous
 62
     4
100
AcDbCircle
 10
-142.4249102551015
 20
159.0397891832484
 30
0.0
 40
0.0490206755352007
100
AcDbArc
 50
209.9816393687586
 51
330.0183606312415
  0
ARC
  5
3FB
102
{ACAD_REACTORS
330
438
102
}
330
1F
100
AcDbEntity
  8
1
  6
Continuous
 62
     7
100
AcDbCircle
 10
-15.65703264459071
 20
10.07749983983263
 30
0.0
 40
0.3333333333332096
100
AcDbArc
 50
180.0
 51
299.9816393688628
  0
ARC
  5
3FC
102
{ACAD_REACTORS
330
438
102
}
330
1F
100
AcDbEntity
  8
1
  6
Continuous
 62
     7
100
AcDbCircle
 10
-15.65703264459071
 20
14.92250016016737
 30
0.0
 40
0.3333333333334157
100
AcDbArc
 50
60.01836063113725
 51
180.0
  0
ARC
  5
3FD
330
1F
100
AcDbEntity
  8
1
  6
Continuous
 62
     7
100
AcDbCircle
 10
-9.99055111169741
 20
12.5
 30
0.0
 40
0.166666666666687
100
AcDbArc
 50
299.9816393688503
 51
60.01836063112923
  0
ARC
  5
3FE
330
1F
100
AcDbEntity
  8
1
  6
Continuous
 62
     7
100
AcDbCircle
 10
-26.65684751081722
 20
12.5
 30
0.0
 40
0.1666666666666247
100
AcDbArc
 50
119.9816393688951
 51
240.0183606311253
  0
ARC
  5
3FF
102
{ACAD_REACTORS
330
439
102
}
330
1F
100
AcDbEntity
  8
1
  6
Continuous
 62
     7
100
AcDbCircle
 10
-20.65703264459071
 20
10.2700211480327
 30
0.0
 40
0.666666666666611
100
AcDbArc
 50
180.0000000000104
 51
240.0183606311596
  0
ARC
  5
400
102
{ACAD_REACTORS
330
43A
102
}
330
1F
100
AcDbEntity
  8
1
  6
Continuous
 62
     7
100
AcDbCircle
 10
-18.32369931125732
 20
12.83333333333326
 30
0.0
 40
0.1666666666666997
100
AcDbArc
 50
209.999999999964
 51
330.000000000025
  0
MTEXT
  5
402
330
1F
100
AcDbEntity
  8
1
 62
     7
100
AcDbMText
 10
-137.1750897448984
 20
161.4907685077133
 30
0.0
 40
2.0
 41
0.0
 71
     5
 72
     1
  1
CX 01  F
  7
CONVERTER_11
 11
6.123232939436859E-17
 21
1.0
 31
0.0
 73
     1
 44
1.32052821128451
  0
MTEXT
  5
404
330
1F
100
AcDbEntity
  8
1
 62
     7
100
AcDbMText
 10
-127.7249102551015
 20
161.4907685077133
 30
0.0
 40
1.4
 41
0.0
 71
     5
 72
     1
  1
10A 250V 4kV 3
  7
CONVERTER_12
 11
0.0
 21
1.0
 31
0.0
 73
     1
 44
1.32052821128451
  0
MTEXT
  5
405
330
1F
100
AcDbEntity
  8
1
 62
     7
100
AcDbMText
 10
-137.1750897448984
 20
165.3907685077132
 30
0.0
 40
2.0
 41
0.0
 71
     5
 72
     1
  1
J
  7
CONVERTER_11
 11
6.123232939436859E-17
 21
1.0
 31
0.0
 73
     1
 44
1.32052821128451
  0
MTEXT
  5
406
330
1F
100
AcDbEntity
  8
1
 62
     7
100
AcDbMText
 10
-137.4500000000001
 20
98.85935674649508
 30
0.0
 40
1.5
 41
0.0
 71
     5
 72
     1
  1
2
  7
CONVERTER_11
 73
     1
 44
1.32052821128451
  0
MTEXT
  5
407
330
1F
100
AcDbEntity
  8
1
 62
     7
100
AcDbMText
 10
-127.3500000000001
 20
98.85935674649508
 30
0.0
 40
1.5
 41
0.0
 71
     5
 72
     1
  1
3
  7
CONVERTER_11
 73
     1
 44
1.32052821128451
  0
MTEXT
  5
408
330
1F
100
AcDbEntity
  8
1
 62
     7
100
AcDbMText
 10
-120.8500000000001
 20
98.85935674649508
 30
0.0
 40
1.5
 41
0.0
 71
     5
 72
     1
  1
4
  7
CONVERTER_11
 73
     1
 44
1.32052821128451
  0
MTEXT
  5
409
330
1F
100
AcDbEntity
  8
1
 62
     7
100
AcDbMText
 10
-143.9500000000001
 20
98.85935674649508
 30
0.0
 40
1.5
 41
0.0
 71
     5
 72
     1
  1
1
  7
CONVERTER_11
 73
     1
 44
1.32052821128451
  0
MTEXT
  5
40A
330
1F
100
AcDbEntity
  8
1
 62
     7
100
AcDbMText
 10
-142.1500000000001
 20
214.9105516132644
 30
0.0
 40
1.5
 41
0.0
 71
     5
 72
     1
  1
1
  7
CONVERTER_11
 73
     1
 44
1.32052821128451
  0
MTEXT
  5
40B
330
1F
100
AcDbEntity
  8
1
 62
     7
100
AcDbMText
 10
-135.65
 20
214.9105516132644
 30
0.0
 40
1.5
 41
0.0
 71
     5
 72
     1
  1
2
  7
CONVERTER_11
 73
     1
 44
1.32052821128451
  0
MTEXT
  5
40C
330
1F
100
AcDbEntity
  8
1
 62
     7
100
AcDbMText
 10
-129.15
 20
214.9105516132644
 30
0.0
 40
1.5
 41
0.0
 71
     5
 72
     1
  1
3
  7
CONVERTER_11
 73
     1
 44
1.32052821128451
  0
MTEXT
  5
40D
330
1F
100
AcDbEntity
  8
1
 62
     7
100
AcDbMText
 10
-122.65
 20
214.9105516132644
 30
0.0
 40
1.5
 41
0.0
 71
     5
 72
     1
  1
4
  7
CONVERTER_11
 73
     1
 44
1.32052821128451
  0
MTEXT
  5
40F
330
1F
100
AcDbEntity
  8
1
 62
     7
100
AcDbMText
 10
-194.0000000000001
 20
151.4999999999998
 30
0.0
 40
4.0
 41
0.0
 71
     5
 72
     1
  1
Diritti riservati      All rights reserved
  7
CONVERTER_13
 11
0.0
 21
1.0
 31
0.0
 73
     1
 44
1.32052821128451
  0
MTEXT
  5
410
330
1F
100
AcDbEntity
  8
1
 62
     7
100
AcDbMText
 10
-187.0
 20
16.26063942075599
 30
0.0
 40
3.0
 41
0.0
 71
     4
 72
     1
  1
Date
  7
CONVERTER_13
 73
     1
 44
1.32052821128451
  0
MTEXT
  5
411
330
1F
100
AcDbEntity
  8
1
 62
     7
100
AcDbMText
 10
-176.4
 20
16.26063942075599
 30
0.0
 40
3.0
 41
0.0
 71
     4
 72
     1
  1
06/11/06
  7
CONVERTER_13
 73
     1
 44
1.32052821128451
  0
MTEXT
  5
412
330
1F
100
AcDbEntity
  8
1
 62
     7
100
AcDbMText
 10
-187.0
 20
8.75000000000001
 30
0.0
 40
3.0
 41
0.0
 71
     4
 72
     1
  1
Sign.
  7
CONVERTER_13
 73
     1
 44
1.32052821128451
  0
MTEXT
  5
413
330
1F
100
AcDbEntity
  8
1
 62
     7
100
AcDbMText
 10
-176.4
 20
8.75000000000001
 30
0.0
 40
3.0
 41
0.0
 71
     4
 72
     1
  1
T.Tedeschi
  7
CONVERTER_13
 73
     1
 44
1.32052821128451
  0
MTEXT
  5
414
330
1F
100
AcDbEntity
  8
1
 62
     7
100
AcDbMText
 10
-152.7236993112573
 20
12.50000000000001
 30
0.0
 40
4.5
 41
0.0
 71
     4
 72
     1
  1
CX 01 JF\Pfemale modular 1xRJ45 + 4P 10A 250V
  7
CONVERTER_13
 73
     1
 44
0.90036014405762
  0
MTEXT
  5
415
330
1F
100
AcDbEntity
  8
1
 62
     7
100
AcDbMText
 10
-40.32369931125732
 20
16.26063942075599
 30
0.0
 40
3.0
 41
0.0
 71
     5
 72
     1
  1
Scale
  7
CONVERTER_13
 73
     1
 44
1.32052821128451
  0
MTEXT
  5
416
330
1F
100
AcDbEntity
  8
1
 62
     7
100
AcDbMText
 10
-40.32369931125732
 20
10.06063942075606
 30
0.0
 40
4.5
 41
0.0
 71
     5
 72
     1
  1
1:1
  7
CONVERTER_13
 73
     1
 44
1.32052821128451
  0
DIMENSION
  5
421
330
1F
100
AcDbEntity
  8
1
100
AcDbDimension
  2
*D1
 10
-27.4220455494733
 20
186.1411685035743
 30
0.0
 11
-31.0720455494733
 21
168.3911685035743
 31
0.0
 70
    32
  1
<>
 71
     5
 42
-1.0
 53
90.0
  3
ME10_DIM_10
100
AcDbAlignedDimension
 13
-42.09999999999991
 23
150.6411685035743
 33
0.0
 14
-46.89999999999992
 24
186.1411685035743
 34
0.0
 50
90.0
100
AcDbRotatedDimension
  0
DIMENSION
  5
42C
330
1F
100
AcDbEntity
  8
1
100
AcDbDimension
  2
*D2
 10
-74.09999999999985
 20
128.893710486078
 30
0.0
 11
-59.09999999999988
 21
132.393710486078
 31
0.0
 70
    32
  1
<>
 71
     5
 42
-1.0
 53
0.00013888888889
  3
ME10_DIM_11
100
AcDbAlignedDimension
 13
-44.09999999999991
 23
150.6411685035743
 33
0.0
 14
-74.09999999999985
 24
150.6411685035738
 34
0.0
100
AcDbRotatedDimension
  0
DIMENSION
  5
437
330
1F
100
AcDbEntity
  8
1
100
AcDbDimension
  2
*D3
 10
-147.1000000000001
 20
128.743710486078
 30
0.0
 11
-132.4000000000001
 21
132.393710486078
 31
0.0
 70
    32
  1
<>
 71
     5
 42
-1.0
 53
0.00013888888889
  3
ME10_DIM_12
100
AcDbAlignedDimension
 13
-117.7000000000001
 23
150.641168503574
 33
0.0
 14
-147.1000000000001
 24
150.6411685035736
 34
0.0
100
AcDbRotatedDimension
  0
HATCH
  5
438
330
1F
100
AcDbEntity
  8
1
  6
Continuous
 62
     7
100
AcDbHatch
 10
0.0
 20
0.0
 30
0.0
210
0.0
220
0.0
230
1.0
  2
SOLID
 70
     1
 71
     1
 91
        1
 92
        1
 93
       14
 72
     2
 10
-15.65703264459071
 20
14.92250016016737
 40
0.3333333333334157
 50
60.01836063113725
 51
180.0
 73
     1
 72
     1
 10
-15.99036597792392
 20
14.92250016016737
 11
-15.99036597792392
 21
10.07749983983263
 72
     2
 10
-15.65703264459071
 20
10.07749983983263
 40
0.3333333333332096
 50
180.0
 51
299.9816393688628
 73
     1
 72
     1
 10
-15.49045849342741
 20
9.78877131114973
 11
-14.15712516009421
 21
10.55800208038033
 72
     2
 10
-14.32369931125732
 20
10.84673060906323
 40
0.3333333333333198
 50
299.9816393688342
 51
479.9816393688351
 73
     1
 72
     1
 10
-14.4902734624205
 20
11.13545913774624
 11
-15.32369931125732
 21
10.65463653264794
 72
     1
 10
-15.32369931125732
 20
10.65463653264794
 11
-15.32369931125732
 21
12.16666666666663
 72
     1
 10
-15.32369931125732
 20
12.16666666666663
 11
-14.32369931125732
 21
12.16666666666663
 72
     2
 10
-14.32369931125732
 20
12.5
 40
0.3333333333333695
 50
270.0
 51
450.0
 73
     1
 72
     1
 10
-14.32369931125732
 20
12.83333333333326
 11
-15.32369931125732
 21
12.83333333333326
 72
     1
 10
-15.32369931125732
 20
12.83333333333326
 11
-15.32369931125732
 21
14.34536346735195
 72
     1
 10
-15.32369931125732
 20
14.34536346735195
 11
-14.4902734624205
 21
13.86454086225376
 72
     2
 10
-14.32369931125732
 20
14.15326939093666
 40
0.3333333333333569
 50
240.0183606311553
 51
420.0183606311556
 73
     1
 72
     1
 10
-14.15712516009421
 20
14.44199791961944
 11
-15.49045849342741
 21
15.21122868885027
 97
       14
330
3FC
330
2E8
330
3FB
330
2E9
330
3E1
330
2EA
330
2EB
330
2EC
330
3E2
330
2ED
330
2EE
330
2EF
330
3E3
330
2F0
 75
     0
 76
     1
 98
        1
 10
0.0
 20
0.0
  0
HATCH
  5
439
330
1F
100
AcDbEntity
  8
1
  6
Continuous
 62
     7
100
AcDbHatch
 10
0.0
 20
0.0
 30
0.0
210
0.0
220
0.0
230
1.0
  2
SOLID
 70
     1
 71
     1
 91
        1
 92
        1
 93
        7
 72
     2
 10
-20.990365977924
 20
14.92250016016737
 40
0.3333333333332895
 50
0.0
 51
180.0
 73
     1
 72
     1
 10
-21.32369931125732
 20
14.92250016016737
 11
-21.32369931125732
 21
10.27002114803258
 72
     2
 10
-20.65703264459071
 20
10.2700211480327
 40
0.666666666666611
 50
180.0000000000104
 51
240.0183606311596
 73
     1
 72
     1
 10
-20.99018094691701
 20
9.692564090666906
 11
-18.8236067957539
 21
8.442617464995806
 72
     2
 10
-18.65703264459071
 20
8.731345993678701
 40
0.3333333333333567
 50
240.0183606311536
 51
420.0183606311373
 73
     1
 72
     1
 10
-18.49045849342741
 20
9.020074522361597
 11
-20.65703264459071
 21
10.2700211480327
 72
     1
 10
-20.65703264459071
 20
10.2700211480327
 11
-20.65703264459071
 21
14.92250016016737
 97
        7
330
3E7
330
2F7
330
3FF
330
2F4
330
3E6
330
2F5
330
2F6
 75
     0
 76
     1
 98
        1
 10
0.0
 20
0.0
  0
HATCH
  5
43A
330
1F
100
AcDbEntity
  8
1
  6
Continuous
 62
     7
100
AcDbHatch
 10
0.0
 20
0.0
 30
0.0
210
0.0
220
0.0
230
1.0
  2
SOLID
 70
     1
 71
     1
 91
        1
 92
        1
 93
       16
 72
     2
 10
-16.921998857066
 20
15.73121731203457
 40
0.2649662124752901
 50
210.0000000000288
 51
360.0
 73
     0
 72
     1
 10
-16.65703264459071
 20
15.73121731203457
 11
-16.65703264459071
 21
9.308269070601796
 72
     2
 10
-16.99036597792392
 20
9.308269070601796
 40
0.3333333333334032
 50
0.0
 51
180.0
 73
     0
 72
     1
 10
-17.32369931125732
 20
9.308269070601796
 11
-17.32369931125732
 21
12.5
 72
     1
 10
-17.32369931125732
 20
12.5
 11
-17.32369931125732
 21
14.23205080756884
 72
     1
 10
-17.32369931125732
 20
14.23205080756884
 11
-18.1793617439599
 21
12.75
 72
     2
 10
-18.32369931125732
 20
12.83333333333326
 40
0.1666666666666997
 50
29.99999999997503
 51
150.000000000036
 73
     0
 72
     1
 10
-18.46803687855481
 20
12.75
 11
-19.32369931125732
 21
14.23205080756884
 72
     1
 10
-19.32369931125732
 20
14.23205080756884
 11
-19.32369931125732
 21
12.5
 72
     1
 10
-19.32369931125732
 20
12.5
 11
-19.32369931125732
 21
10.84758507263291
 72
     2
 10
-19.65703264459071
 20
10.84758507263291
 40
0.3333333333332895
 50
0.0
 51
180.0
 73
     0
 72
     1
 10
-19.990365977924
 20
10.84758507263291
 11
-19.990365977924
 21
12.5
 72
     1
 10
-19.990365977924
 20
12.5
 11
-19.990365977924
 21
15.73121731203457
 72
     2
 10
-19.72539976544871
 20
15.73121731203457
 40
0.2649662124752792
 50
180.0
 51
329.99999999998
 73
     0
 72
     1
 10
-19.49593229430062
 20
15.86370041827229
 11
-18.32369931125732
 21
13.83333333333326
 72
     1
 10
-18.32369931125732
 20
13.83333333333326
 11
-17.15146632821401
 21
15.86370041827229
 97
       16
330
2FD
330
3EB
330
2FE
330
2FC
330
3EA
330
2FB
330
303
330
304
330
400
330
305
330
306
330
2FA
330
3E9
330
2F9
330
3E8
330
2F8
 75
     0
 76
     1
 98
        1
 10
0.0
 20
0.0
  0
HATCH
  5
43B
330
1F
100
AcDbEntity
  8
1
  6
Continuous
 62
     7
100
AcDbHatch
 10
0.0
 20
0.0
 30
0.0
210
0.0
220
0.0
230
1.0
  2
SOLID
 70
     1
 71
     1
 91
        1
 92
        1
 93
        5
 72
     2
 10
-22.32369931125732
 20
14.15326939093666
 40
0.3333333333333215
 50
0.0
 51
180.0
 73
     1
 72
     1
 10
-22.65703264459071
 20
14.15326939093666
 11
-22.65703264459071
 21
10.84673060906323
 72
     2
 10
-22.32369931125732
 20
10.84673060906323
 40
0.333333333333389
 50
180.0
 51
360.0
 73
     1
 72
     1
 10
-21.990365977924
 20
10.84673060906323
 11
-21.990365977924
 21
11.0392519172633
 72
     1
 10
-21.990365977924
 20
11.0392519172633
 11
-21.990365977924
 21
14.15326939093666
 97
        5
330
3E5
330
2F1
330
3E4
330
2F2
330
2F3
 75
     0
 76
     1
 98
        1
 10
0.0
 20
0.0
  0
HATCH
  5
43C
330
1F
100
AcDbEntity
  8
1
  6
Continuous
 62
     2
100
AcDbHatch
 10
0.0
 20
0.0
 30
0.0
210
0.0
220
0.0
230
1.0
  2
SOLID
 70
     1
 71
     1
 91
        1
 92
        1
 93
        3
 72
     1
 10
-124.3
 20
213.5105516132646
 11
-125.05
 21
211.5105516132646
 72
     1
 10
-125.05
 20
211.5105516132646
 11
-125.8
 21
213.5105516132646
 72
     1
 10
-125.8
 20
213.5105516132646
 11
-124.3
 21
213.5105516132646
 97
        3
330
34E
330
34D
330
34F
 75
     0
 76
     1
 98
        1
 10
0.0
 20
0.0
  0
HATCH
  5
43D
330
1F
100
AcDbEntity
  8
1
  6
Continuous
 62
     2
100
AcDbHatch
 10
0.0
 20
0.0
 30
0.0
210
0.0
220
0.0
230
1.0
  2
SOLID
 70
     1
 71
     1
 91
        1
 92
        1
 93
        3
 72
     1
 10
-139.0000000000001
 20
213.5105516132646
 11
-139.7500000000001
 21
211.5105516132646
 72
     1
 10
-139.7500000000001
 20
211.5105516132646
 11
-140.5000000000001
 21
213.5105516132646
 72
     1
 10
-140.5000000000001
 20
213.5105516132646
 11
-139.0000000000001
 21
213.5105516132646
 97
        3
330
34B
330
34C
330
34A
 75
     0
 76
     1
 98
        1
 10
0.0
 20
0.0
  0
ENDSEC
  0
SECTION
  2
OBJECTS
  0
DICTIONARY
  5
C
330
0
100
AcDbDictionary
281
     1
  3
ACAD_GROUP
350
D
  3
ACAD_LAYOUT
350
1A
  3
ACAD_MATERIAL
350
3B
  3
ACAD_MLEADERSTYLE
350
440
  3
ACAD_MLINESTYLE
350
17
  3
ACAD_PLOTSETTINGS
350
19
  3
ACAD_PLOTSTYLENAME
350
E
  3
ACAD_VISUALSTYLE
350
2A
  3
AcDbVariableDictionary
350
43E
  0
DICTIONARY
  5
D
102
{ACAD_REACTORS
330
C
102
}
330
C
100
AcDbDictionary
281
     1
  0
DICTIONARY
  5
1A
102
{ACAD_REACTORS
330
C
102
}
330
C
100
AcDbDictionary
281
     1
  3
Layout1
350
1E
  3
Layout2
350
26
  3
Model
350
22
  0
DICTIONARY
  5
3B
102
{ACAD_REACTORS
330
C
102
}
330
C
100
AcDbDictionary
281
     1
  3
ByBlock
350
3D
  3
ByLayer
350
3C
  3
Global
350
3E
  0
DICTIONARY
  5
440
102
{ACAD_REACTORS
330
C
102
}
330
C
100
AcDbDictionary
281
     1
  0
DICTIONARY
  5
17
102
{ACAD_REACTORS
330
C
102
}
330
C
100
AcDbDictionary
281
     1
  3
Standard
350
18
  0
DICTIONARY
  5
19
102
{ACAD_REACTORS
330
C
102
}
330
C
100
AcDbDictionary
281
     1
  0
ACDBDICTIONARYWDFLT
  5
E
102
{ACAD_REACTORS
330
C
102
}
330
C
100
AcDbDictionary
281
     1
  3
Normal
350
F
100
AcDbDictionaryWithDefault
340
F
  0
DICTIONARY
  5
2A
102
{ACAD_REACTORS
330
C
102
}
330
C
100
AcDbDictionary
281
     1
  3
2dWireframe
350
2F
  3
3D Hidden
350
31
  3
3dWireframe
350
30
  3
Basic
350
32
  3
Brighten
350
36
  3
ColorChange
350
3A
  3
Conceptual
350
34
  3
Dim
350
35
  3
Facepattern
350
39
  3
Flat
350
2B
  3
FlatWithEdges
350
2C
  3
Gouraud
350
2D
  3
GouraudWithEdges
350
2E
  3
Linepattern
350
38
  3
Realistic
350
33
  3
Thicken
350
37
  0
DICTIONARY
  5
43E
102
{ACAD_REACTORS
330
C
102
}
330
C
100
AcDbDictionary
281
     1
  3
DIMASSOC
350
441
  3
HIDETEXT
350
442
  0
LAYOUT
  5
1E
102
{ACAD_REACTORS
330
1A
102
}
330
1A
100
AcDbPlotSettings
  1

  2
none_device
  4

  6

 40
0.0
 41
0.0
 42
0.0
 43
0.0
 44
0.0
 45
0.0
 46
0.0
 47
0.0
 48
0.0
 49
0.0
140
0.0
141
0.0
142
1.0
143
1.0
 70
   688
 72
     0
 73
     0
 74
     5
  7

 75
    16
147
1.0
148
0.0
149
0.0
100
AcDbLayout
  1
Layout1
 70
     1
 71
     1
 10
0.0
 20
0.0
 11
12.0
 21
9.0
 12
0.0
 22
0.0
 32
0.0
 14
1.00000000000000E+20
 24
1.00000000000000E+20
 34
1.00000000000000E+20
 15
-1.00000000000000E+20
 25
-1.00000000000000E+20
 35
-1.00000000000000E+20
146
0.0
 13
0.0
 23
0.0
 33
0.0
 16
1.0
 26
0.0
 36
0.0
 17
0.0
 27
1.0
 37
0.0
 76
     0
330
1B
  0
LAYOUT
  5
26
102
{ACAD_REACTORS
330
1A
102
}
330
1A
100
AcDbPlotSettings
  1

  2
none_device
  4

  6

 40
0.0
 41
0.0
 42
0.0
 43
0.0
 44
0.0
 45
0.0
 46
0.0
 47
0.0
 48
0.0
 49
0.0
140
0.0
141
0.0
142
1.0
143
1.0
 70
   688
 72
     0
 73
     0
 74
     5
  7

 75
    16
147
1.0
148
0.0
149
0.0
100
AcDbLayout
  1
Layout2
 70
     1
 71
     2
 10
0.0
 20
0.0
 11
0.0
 21
0.0
 12
0.0
 22
0.0
 32
0.0
 14
0.0
 24
0.0
 34
0.0
 15
0.0
 25
0.0
 35
0.0
146
0.0
 13
0.0
 23
0.0
 33
0.0
 16
1.0
 26
0.0
 36
0.0
 17
0.0
 27
1.0
 37
0.0
 76
     0
330
23
  0
LAYOUT
  5
22
102
{ACAD_REACTORS
330
1A
102
}
330
1A
100
AcDbPlotSettings
  1

  2
none_device
  4

  6

 40
0.0
 41
0.0
 42
0.0
 43
0.0
 44
0.0
 45
0.0
 46
0.0
 47
0.0
 48
0.0
 49
0.0
140
0.0
141
0.0
142
1.0
143
1.0
 70
  1712
 72
     0
 73
     0
 74
     0
  7

 75
     0
147
1.0
148
0.0
149
0.0
100
AcDbLayout
  1
Model
 70
     1
 71
     0
 10
0.0
 20
0.0
 11
12.0
 21
9.0
 12
0.0
 22
0.0
 32
0.0
 14
-210.0000000000001
 24
0.0
 34
0.0
 15
0.0
 25
297.0000000000001
 35
0.0
146
0.0
 13
0.0
 23
0.0
 33
0.0
 16
1.0
 26
0.0
 36
0.0
 17
0.0
 27
1.0
 37
0.0
 76
     0
330
1F
331
29
  0
MATERIAL
  5
3D
102
{ACAD_REACTORS
330
3B
102
}
102
{ACAD_XDICTIONARY
360
465
102
}
330
3B
100
AcDbMaterial
  1
ByBlock
  0
MATERIAL
  5
3C
102
{ACAD_REACTORS
330
3B
102
}
102
{ACAD_XDICTIONARY
360
463
102
}
330
3B
100
AcDbMaterial
  1
ByLayer
  0
MATERIAL
  5
3E
102
{ACAD_REACTORS
330
3B
102
}
102
{ACAD_XDICTIONARY
360
467
102
}
330
3B
100
AcDbMaterial
  1
Global
  0
MLINESTYLE
  5
18
102
{ACAD_REACTORS
330
17
102
}
330
17
100
AcDbMlineStyle
  2
Standard
 70
     0
  3

 62
   256
 51
90.0
 52
90.0
 71
     2
 49
0.5
 62
   256
  6
BYLAYER
 49
-0.5
 62
   256
  6
BYLAYER
  0
ACDBPLACEHOLDER
  5
F
102
{ACAD_REACTORS
330
E
102
}
330
E
  0
VISUALSTYLE
  5
2F
102
{ACAD_REACTORS
330
2A
102
}
102
{ACAD_XDICTIONARY
360
44B
102
}
330
2A
100
AcDbVisualStyle
  2
2dWireframe
 70
     4
 71
     0
 72
     2
 73
     0
 90
        0
 40
-0.6
 41
-30.0
 62
     5
 63
     7
 74
     1
 91
        4
 64
     7
 65
   257
 75
     1
175
     1
 42
1.0
 92
        0
 66
   257
 43
1.0
 76
     1
 77
     6
 78
     2
 67
     7
 79
     5
170
     0
171
     0
290
     0
174
     0
 93
        1
 44
0.0
173
     0
291
     0
 45
0.0
1001
ACAD
1000
AcDbSavedByObjectVersion
1070
     0
  0
VISUALSTYLE
  5
31
102
{ACAD_REACTORS
330
2A
102
}
102
{ACAD_XDICTIONARY
360
44F
102
}
330
2A
100
AcDbVisualStyle
  2
3D Hidden
 70
     6
 71
     1
 72
     2
 73
     2
 90
        0
 40
-0.6
 41
-30.0
 62
     5
 63
     7
 74
     2
 91
        2
 64
     7
 65
   257
 75
     2
175
     1
 42
40.0
 92
        0
 66
   257
 43
1.0
 76
     1
 77
     6
 78
     2
 67
     7
 79
     3
170
     0
171
     0
290
     0
174
     0
 93
        1
 44
0.0
173
     0
291
     0
 45
0.0
1001
ACAD
1000
AcDbSavedByObjectVersion
1070
     0
  0
VISUALSTYLE
  5
30
102
{ACAD_REACTORS
330
2A
102
}
102
{ACAD_XDICTIONARY
360
44D
102
}
330
2A
100
AcDbVisualStyle
  2
3dWireframe
 70
     5
 71
     0
 72
     2
 73
     0
 90
        0
 40
-0.6
 41
-30.0
 62
     5
 63
     7
 74
     1
 91
        4
 64
     7
 65
   257
 75
     1
175
     1
 42
1.0
 92
        0
 66
   257
 43
1.0
 76
     1
 77
     6
 78
     2
 67
     7
 79
     5
170
     0
171
     0
290
     0
174
     0
 93
        1
 44
0.0
173
     0
291
     0
 45
0.0
1001
ACAD
1000
AcDbSavedByObjectVersion
1070
     0
  0
VISUALSTYLE
  5
32
102
{ACAD_REACTORS
330
2A
102
}
102
{ACAD_XDICTIONARY
360
451
102
}
330
2A
100
AcDbVisualStyle
  2
Basic
 70
     7
 71
     1
 72
     0
 73
     1
 90
        0
 40
-0.6
 41
-30.0
 62
     5
 63
     7
 74
     0
 91
        4
 64
     7
 65
   257
 75
     1
175
     1
 42
1.0
 92
        8
 66
     7
 43
1.0
 76
     1
 77
     6
 78
     2
 67
     7
 79
     5
170
     0
171
     0
290
     0
174
     0
 93
        1
 44
0.0
173
     0
291
     1
 45
0.0
1001
ACAD
1000
AcDbSavedByObjectVersion
1070
     0
  0
VISUALSTYLE
  5
36
102
{ACAD_REACTORS
330
2A
102
}
102
{ACAD_XDICTIONARY
360
459
102
}
330
2A
100
AcDbVisualStyle
  2
Brighten
 70
    12
 71
     2
 72
     2
 73
     0
 90
        0
 40
-0.6
 41
-30.0
 62
     5
 63
     7
 74
     1
 91
        4
 64
     7
 65
   257
 75
     1
175
     1
 42
1.0
 92
        8
 66
     7
 43
1.0
 76
     1
 77
     6
 78
     2
 67
     7
 79
     5
170
     0
171
     0
290
     0
174
     0
 93
        1
 44
50.0
173
     0
291
     1
 45
0.0
1001
ACAD
1000
AcDbSavedByObjectVersion
1070
     0
  0
VISUALSTYLE
  5
3A
102
{ACAD_REACTORS
330
2A
102
}
102
{ACAD_XDICTIONARY
360
461
102
}
330
2A
100
AcDbVisualStyle
  2
ColorChange
 70
    16
 71
     2
 72
     2
 73
     3
 90
        0
 40
-0.6
 41
-30.0
 62
     5
 63
     8
 74
     1
 91
        4
 64
     7
 65
   257
 75
     1
175
     1
 42
1.0
 92
        8
 66
     8
 43
1.0
 76
     1
 77
     6
 78
     2
 67
     7
 79
     5
170
     0
171
     0
290
     0
174
     0
 93
        1
 44
0.0
173
     0
291
     1
 45
0.0
1001
ACAD
1000
AcDbSavedByObjectVersion
1070
     0
  0
VISUALSTYLE
  5
34
102
{ACAD_REACTORS
330
2A
102
}
102
{ACAD_XDICTIONARY
360
455
102
}
330
2A
100
AcDbVisualStyle
  2
Conceptual
 70
     9
 71
     3
 72
     2
 73
     0
 90
        0
 40
-0.6
 41
-30.0
 62
     5
 63
     7
 74
     2
 91
        2
 64
     7
 65
   257
 75
     1
175
     1
 42
40.0
 92
        8
 66
     7
 43
1.0
 76
     1
 77
     6
 78
     2
 67
     7
 79
     3
170
     0
171
     0
290
     0
174
     0
 93
        1
 44
0.0
173
     0
291
     0
 45
0.0
1001
ACAD
1000
AcDbSavedByObjectVersion
1070
     0
  0
VISUALSTYLE
  5
35
102
{ACAD_REACTORS
330
2A
102
}
102
{ACAD_XDICTIONARY
360
457
102
}
330
2A
100
AcDbVisualStyle
  2
Dim
 70
    11
 71
     2
 72
     2
 73
     0
 90
        0
 40
-0.6
 41
-30.0
 62
     5
 63
     7
 74
     1
 91
        4
 64
     7
 65
   257
 75
     1
175
     1
 42
1.0
 92
        8
 66
     7
 43
1.0
 76
     1
 77
     6
 78
     2
 67
     7
 79
     5
170
     0
171
     0
290
     0
174
     0
 93
        1
 44
-50.0
173
     0
291
     1
 45
0.0
1001
ACAD
1000
AcDbSavedByObjectVersion
1070
     0
  0
VISUALSTYLE
  5
39
102
{ACAD_REACTORS
330
2A
102
}
102
{ACAD_XDICTIONARY
360
45F
102
}
330
2A
100
AcDbVisualStyle
  2
Facepattern
 70
    15
 71
     2
 72
     2
 73
     0
 90
        0
 40
-0.6
 41
-30.0
 62
     5
 63
     7
 74
     1
 91
        4
 64
     7
 65
   257
 75
     1
175
     1
 42
1.0
 92
        8
 66
     7
 43
1.0
 76
     1
 77
     6
 78
     2
 67
     7
 79
     5
170
     0
171
     0
290
     0
174
     0
 93
        1
 44
0.0
173
     0
291
     1
 45
0.0
1001
ACAD
1000
AcDbSavedByObjectVersion
1070
     0
  0
VISUALSTYLE
  5
2B
102
{ACAD_REACTORS
330
2A
102
}
102
{ACAD_XDICTIONARY
360
443
102
}
330
2A
100
AcDbVisualStyle
  2
Flat
 70
     0
 71
     2
 72
     1
 73
     1
 90
        2
 40
-0.6
 41
30.0
 62
     5
 63
     7
 74
     0
 91
        4
 64
     7
 65
   257
 75
     1
175
     1
 42
1.0
 92
        8
 66
     7
 43
1.0
 76
     1
 77
     6
 78
     2
 67
     7
 79
     5
170
     0
171
     0
290
     0
174
     0
 93
       13
 44
0.0
173
     0
291
     1
 45
0.0
1001
ACAD
1000
AcDbSavedByObjectVersion
1070
     0
  0
VISUALSTYLE
  5
2C
102
{ACAD_REACTORS
330
2A
102
}
102
{ACAD_XDICTIONARY
360
445
102
}
330
2A
100
AcDbVisualStyle
  2
FlatWithEdges
 70
     1
 71
     2
 72
     1
 73
     1
 90
        2
 40
-0.6
 41
30.0
 62
     5
 63
     7
 74
     1
 91
        4
 64
     7
 65
   257
 75
     1
175
     1
 42
1.0
 92
        0
 66
   257
 43
1.0
 76
     1
 77
     6
 78
     2
 67
     7
 79
     5
170
     0
171
     0
290
     0
174
     0
 93
       13
 44
0.0
173
     0
291
     1
 45
0.0
1001
ACAD
1000
AcDbSavedByObjectVersion
1070
     0
  0
VISUALSTYLE
  5
2D
102
{ACAD_REACTORS
330
2A
102
}
102
{ACAD_XDICTIONARY
360
447
102
}
330
2A
100
AcDbVisualStyle
  2
Gouraud
 70
     2
 71
     2
 72
     2
 73
     1
 90
        2
 40
-0.6
 41
30.0
 62
     5
 63
     7
 74
     0
 91
        4
 64
     7
 65
   257
 75
     1
175
     1
 42
1.0
 92
        0
 66
     7
 43
1.0
 76
     1
 77
     6
 78
     2
 67
     7
 79
     5
170
     0
171
     0
290
     0
174
     0
 93
       13
 44
0.0
173
     0
291
     1
 45
0.0
1001
ACAD
1000
AcDbSavedByObjectVersion
1070
     0
  0
VISUALSTYLE
  5
2E
102
{ACAD_REACTORS
330
2A
102
}
102
{ACAD_XDICTIONARY
360
449
102
}
330
2A
100
AcDbVisualStyle
  2
GouraudWithEdges
 70
     3
 71
     2
 72
     2
 73
     1
 90
        2
 40
-0.6
 41
30.0
 62
     5
 63
     7
 74
     1
 91
        4
 64
     7
 65
   257
 75
     1
175
     1
 42
1.0
 92
        0
 66
   257
 43
1.0
 76
     1
 77
     6
 78
     2
 67
     7
 79
     5
170
     0
171
     0
290
     0
174
     0
 93
       13
 44
0.0
173
     0
291
     1
 45
0.0
1001
ACAD
1000
AcDbSavedByObjectVersion
1070
     0
  0
VISUALSTYLE
  5
38
102
{ACAD_REACTORS
330
2A
102
}
102
{ACAD_XDICTIONARY
360
45D
102
}
330
2A
100
AcDbVisualStyle
  2
Linepattern
 70
    14
 71
     2
 72
     2
 73
     0
 90
        0
 40
-0.6
 41
-30.0
 62
     5
 63
     7
 74
     1
 91
        4
 64
     7
 65
   257
 75
     7
175
     7
 42
1.0
 92
        8
 66
     7
 43
1.0
 76
     1
 77
     6
 78
     2
 67
     7
 79
     5
170
     0
171
     0
290
     0
174
     0
 93
        1
 44
0.0
173
     0
291
     1
 45
0.0
1001
ACAD
1000
AcDbSavedByObjectVersion
1070
     0
  0
VISUALSTYLE
  5
33
102
{ACAD_REACTORS
330
2A
102
}
102
{ACAD_XDICTIONARY
360
453
102
}
330
2A
100
AcDbVisualStyle
  2
Realistic
 70
     8
 71
     2
 72
     2
 73
     0
 90
        0
 40
-0.6
 41
-30.0
 62
     5
 63
     7
 74
     1
 91
        0
 64
     7
 65
   257
 75
     1
175
     1
 42
1.0
 92
        8
 66
     8
 43
1.0
 76
     1
 77
     6
 78
     2
 67
     7
 79
     5
170
     0
171
     0
290
     0
174
     0
 93
       13
 44
0.0
173
     0
291
     0
 45
0.0
1001
ACAD
1000
AcDbSavedByObjectVersion
1070
     0
  0
VISUALSTYLE
  5
37
102
{ACAD_REACTORS
330
2A
102
}
102
{ACAD_XDICTIONARY
360
45B
102
}
330
2A
100
AcDbVisualStyle
  2
Thicken
 70
    13
 71
     2
 72
     2
 73
     0
 90
        0
 40
-0.6
 41
-30.0
 62
     5
 63
     7
 74
     1
 91
        4
 64
     7
 65
   257
 75
     1
175
     1
 42
1.0
 92
       12
 66
     7
 43
1.0
 76
     1
 77
     6
 78
     2
 67
     7
 79
     5
170
     0
171
     0
290
     0
174
     0
 93
        1
 44
0.0
173
     0
291
     1
 45
0.0
1001
ACAD
1000
AcDbSavedByObjectVersion
1070
     0
  0
DICTIONARYVAR
  5
441
102
{ACAD_REACTORS
330
43E
102
}
330
43E
100
DictionaryVariables
280
     0
  1
2
  0
DICTIONARYVAR
  5
442
102
{ACAD_REACTORS
330
43E
102
}
330
43E
100
DictionaryVariables
280
     0
  1
1
  0
DICTIONARY
  5
465
330
3D
100
AcDbDictionary
280
     1
281
     1
  3
ACAD_XREC_ROUNDTRIP
360
466
  0
DICTIONARY
  5
463
330
3C
100
AcDbDictionary
280
     1
281
     1
  3
ACAD_XREC_ROUNDTRIP
360
464
  0
DICTIONARY
  5
467
330
3E
100
AcDbDictionary
280
     1
281
     1
  3
ACAD_XREC_ROUNDTRIP
360
468
  0
DICTIONARY
  5
44B
330
2F
100
AcDbDictionary
280
     1
281
     1
  3
ACAD_XREC_ROUNDTRIP
360
44C
  0
DICTIONARY
  5
44F
330
31
100
AcDbDictionary
280
     1
281
     1
  3
ACAD_XREC_ROUNDTRIP
360
450
  0
DICTIONARY
  5
44D
330
30
100
AcDbDictionary
280
     1
281
     1
  3
ACAD_XREC_ROUNDTRIP
360
44E
  0
DICTIONARY
  5
451
330
32
100
AcDbDictionary
280
     1
281
     1
  3
ACAD_XREC_ROUNDTRIP
360
452
  0
DICTIONARY
  5
459
330
36
100
AcDbDictionary
280
     1
281
     1
  3
ACAD_XREC_ROUNDTRIP
360
45A
  0
DICTIONARY
  5
461
330
3A
100
AcDbDictionary
280
     1
281
     1
  3
ACAD_XREC_ROUNDTRIP
360
462
  0
DICTIONARY
  5
455
330
34
100
AcDbDictionary
280
     1
281
     1
  3
ACAD_XREC_ROUNDTRIP
360
456
  0
DICTIONARY
  5
457
330
35
100
AcDbDictionary
280
     1
281
     1
  3
ACAD_XREC_ROUNDTRIP
360
458
  0
DICTIONARY
  5
45F
330
39
100
AcDbDictionary
280
     1
281
     1
  3
ACAD_XREC_ROUNDTRIP
360
460
  0
DICTIONARY
  5
443
330
2B
100
AcDbDictionary
280
     1
281
     1
  3
ACAD_XREC_ROUNDTRIP
360
444
  0
DICTIONARY
  5
445
330
2C
100
AcDbDictionary
280
     1
281
     1
  3
ACAD_XREC_ROUNDTRIP
360
446
  0
DICTIONARY
  5
447
330
2D
100
AcDbDictionary
280
     1
281
     1
  3
ACAD_XREC_ROUNDTRIP
360
448
  0
DICTIONARY
  5
449
330
2E
100
AcDbDictionary
280
     1
281
     1
  3
ACAD_XREC_ROUNDTRIP
360
44A
  0
DICTIONARY
  5
45D
330
38
100
AcDbDictionary
280
     1
281
     1
  3
ACAD_XREC_ROUNDTRIP
360
45E
  0
DICTIONARY
  5
453
330
33
100
AcDbDictionary
280
     1
281
     1
  3
ACAD_XREC_ROUNDTRIP
360
454
  0
DICTIONARY
  5
45B
330
37
100
AcDbDictionary
280
     1
281
     1
  3
ACAD_XREC_ROUNDTRIP
360
45C
  0
XRECORD
  5
466
102
{ACAD_REACTORS
330
465
102
}
330
465
100
AcDbXrecord
280
     1
102
MATERIAL
148
0.0
149
0.0
149
0.0
 93
        0
 94
      127
282
     0
 72
     1
 77
     1
171
     1
175
     1
179
     1
273
     0
  0
XRECORD
  5
464
102
{ACAD_REACTORS
330
463
102
}
330
463
100
AcDbXrecord
280
     1
102
MATERIAL
148
0.0
149
0.0
149
0.0
 93
        0
 94
      127
282
     0
 72
     1
 77
     1
171
     1
175
     1
179
     1
273
     0
  0
XRECORD
  5
468
102
{ACAD_REACTORS
330
467
102
}
330
467
100
AcDbXrecord
280
     1
102
MATERIAL
148
0.0
149
0.0
149
0.0
 93
        0
 94
      127
282
     0
 72
     1
 77
     1
171
     1
175
     1
179
     1
273
     0
  0
XRECORD
  5
44C
102
{ACAD_REACTORS
330
44B
102
}
330
44B
100
AcDbXrecord
280
     1
102
RTVSPropertyOp0
 70
     1
102
RTVSPropertyOp1
 70
     1
102
RTVSPropertyOp2
 70
     1
102
RTVSPropertyOp3
 70
     1
102
RTVSPropertyOp4
 70
     1
102
RTVSPropertyOp5
 70
     1
102
RTVSPropertyOp6
 70
     1
102
RTVSPropertyOp7
 70
     1
102
RTVSPropertyOp8
 70
     1
102
RTVSPropertyOp9
 70
     1
102
RTVSPropertyOp10
 70
     1
102
RTVSPropertyOp11
 70
     1
102
RTVSPropertyOp12
 70
     1
102
RTVSPropertyOp13
 70
     1
102
RTVSPropertyOp14
 70
     1
102
RTVSPropertyOp15
 70
     1
102
RTVSPropertyOp16
 70
     1
102
RTVSPropertyOp17
 70
     1
102
RTVSPropertyOp18
 70
     1
102
RTVSPropertyOp19
 70
     1
102
RTVSPropertyOp20
 70
     1
102
RTVSPropertyOp21
 70
     1
102
RTVSPropertyOp22
 70
     1
102
RTVSPropertyOp23
 70
     1
102
RTVSPropertyOp24
 70
     1
102
RTVSPropertyOp25
 70
     1
102
RTVSPropertyOp26
 70
     1
102
RTVSPropertyOp27
 70
     1
102
RTVSPropertyOp28
 70
     1
102
RTVSPropertyOp29
 70
     1
102
RTVSPropertyOp30
 70
     1
102
RTVSPropertyOp31
 70
     1
102
RTVSPropertyOp32
 70
     1
  0
XRECORD
  5
450
102
{ACAD_REACTORS
330
44F
102
}
330
44F
100
AcDbXrecord
280
     1
102
RTVSPropertyOp0
 70
     1
102
RTVSPropertyOp1
 70
     1
102
RTVSPropertyOp2
 70
     1
102
RTVSPropertyOp3
 70
     1
102
RTVSPropertyOp4
 70
     1
102
RTVSPropertyOp5
 70
     1
102
RTVSPropertyOp6
 70
     1
102
RTVSPropertyOp7
 70
     1
102
RTVSPropertyOp8
 70
     1
102
RTVSPropertyOp9
 70
     1
102
RTVSPropertyOp10
 70
     1
102
RTVSPropertyOp11
 70
     1
102
RTVSPropertyOp12
 70
     1
102
RTVSPropertyOp13
 70
     1
102
RTVSPropertyOp14
 70
     1
102
RTVSPropertyOp15
 70
     1
102
RTVSPropertyOp16
 70
     1
102
RTVSPropertyOp17
 70
     1
102
RTVSPropertyOp18
 70
     1
102
RTVSPropertyOp19
 70
     1
102
RTVSPropertyOp20
 70
     1
102
RTVSPropertyOp21
 70
     1
102
RTVSPropertyOp22
 70
     1
102
RTVSPropertyOp23
 70
     1
102
RTVSPropertyOp24
 70
     1
102
RTVSPropertyOp25
 70
     1
102
RTVSPropertyOp26
 70
     1
102
RTVSPropertyOp27
 70
     1
102
RTVSPropertyOp28
 70
     1
102
RTVSPropertyOp29
 70
     1
102
RTVSPropertyOp30
 70
     1
102
RTVSPropertyOp31
 70
     1
102
RTVSPropertyOp32
 70
     1
  0
XRECORD
  5
44E
102
{ACAD_REACTORS
330
44D
102
}
330
44D
100
AcDbXrecord
280
     1
102
RTVSPropertyOp0
 70
     1
102
RTVSPropertyOp1
 70
     1
102
RTVSPropertyOp2
 70
     1
102
RTVSPropertyOp3
 70
     1
102
RTVSPropertyOp4
 70
     1
102
RTVSPropertyOp5
 70
     1
102
RTVSPropertyOp6
 70
     1
102
RTVSPropertyOp7
 70
     1
102
RTVSPropertyOp8
 70
     1
102
RTVSPropertyOp9
 70
     1
102
RTVSPropertyOp10
 70
     1
102
RTVSPropertyOp11
 70
     1
102
RTVSPropertyOp12
 70
     1
102
RTVSPropertyOp13
 70
     1
102
RTVSPropertyOp14
 70
     1
102
RTVSPropertyOp15
 70
     1
102
RTVSPropertyOp16
 70
     1
102
RTVSPropertyOp17
 70
     1
102
RTVSPropertyOp18
 70
     1
102
RTVSPropertyOp19
 70
     1
102
RTVSPropertyOp20
 70
     1
102
RTVSPropertyOp21
 70
     1
102
RTVSPropertyOp22
 70
     1
102
RTVSPropertyOp23
 70
     1
102
RTVSPropertyOp24
 70
     1
102
RTVSPropertyOp25
 70
     1
102
RTVSPropertyOp26
 70
     1
102
RTVSPropertyOp27
 70
     1
102
RTVSPropertyOp28
 70
     1
102
RTVSPropertyOp29
 70
     1
102
RTVSPropertyOp30
 70
     1
102
RTVSPropertyOp31
 70
     1
102
RTVSPropertyOp32
 70
     1
  0
XRECORD
  5
452
102
{ACAD_REACTORS
330
451
102
}
330
451
100
AcDbXrecord
280
     1
102
RTVSPropertyOp0
 70
     1
102
RTVSPropertyOp1
 70
     1
102
RTVSPropertyOp2
 70
     1
102
RTVSPropertyOp3
 70
     1
102
RTVSPropertyOp4
 70
     1
102
RTVSPropertyOp5
 70
     1
102
RTVSPropertyOp6
 70
     1
102
RTVSPropertyOp7
 70
     1
102
RTVSPropertyOp8
 70
     1
102
RTVSPropertyOp9
 70
     1
102
RTVSPropertyOp10
 70
     1
102
RTVSPropertyOp11
 70
     1
102
RTVSPropertyOp12
 70
     1
102
RTVSPropertyOp13
 70
     1
102
RTVSPropertyOp14
 70
     1
102
RTVSPropertyOp15
 70
     1
102
RTVSPropertyOp16
 70
     1
102
RTVSPropertyOp17
 70
     1
102
RTVSPropertyOp18
 70
     1
102
RTVSPropertyOp19
 70
     1
102
RTVSPropertyOp20
 70
     1
102
RTVSPropertyOp21
 70
     1
102
RTVSPropertyOp22
 70
     1
102
RTVSPropertyOp23
 70
     1
102
RTVSPropertyOp24
 70
     1
102
RTVSPropertyOp25
 70
     1
102
RTVSPropertyOp26
 70
     1
102
RTVSPropertyOp27
 70
     1
102
RTVSPropertyOp28
 70
     1
102
RTVSPropertyOp29
 70
     1
102
RTVSPropertyOp30
 70
     1
102
RTVSPropertyOp31
 70
     1
102
RTVSPropertyOp32
 70
     1
  0
XRECORD
  5
45A
102
{ACAD_REACTORS
330
459
102
}
330
459
100
AcDbXrecord
280
     1
102
RTVSPropertyOp0
 70
     1
102
RTVSPropertyOp1
 70
     1
102
RTVSPropertyOp2
 70
     1
102
RTVSPropertyOp3
 70
     1
102
RTVSPropertyOp4
 70
     1
102
RTVSPropertyOp5
 70
     1
102
RTVSPropertyOp6
 70
     1
102
RTVSPropertyOp7
 70
     1
102
RTVSPropertyOp8
 70
     1
102
RTVSPropertyOp9
 70
     1
102
RTVSPropertyOp10
 70
     1
102
RTVSPropertyOp11
 70
     1
102
RTVSPropertyOp12
 70
     1
102
RTVSPropertyOp13
 70
     1
102
RTVSPropertyOp14
 70
     1
102
RTVSPropertyOp15
 70
     1
102
RTVSPropertyOp16
 70
     1
102
RTVSPropertyOp17
 70
     1
102
RTVSPropertyOp18
 70
     1
102
RTVSPropertyOp19
 70
     1
102
RTVSPropertyOp20
 70
     1
102
RTVSPropertyOp21
 70
     1
102
RTVSPropertyOp22
 70
     1
102
RTVSPropertyOp23
 70
     1
102
RTVSPropertyOp24
 70
     1
102
RTVSPropertyOp25
 70
     1
102
RTVSPropertyOp26
 70
     1
102
RTVSPropertyOp27
 70
     1
102
RTVSPropertyOp28
 70
     1
102
RTVSPropertyOp29
 70
     1
102
RTVSPropertyOp30
 70
     1
102
RTVSPropertyOp31
 70
     1
102
RTVSPropertyOp32
 70
     1
  0
XRECORD
  5
462
102
{ACAD_REACTORS
330
461
102
}
330
461
100
AcDbXrecord
280
     1
102
RTVSPropertyOp0
 70
     1
102
RTVSPropertyOp1
 70
     1
102
RTVSPropertyOp2
 70
     1
102
RTVSPropertyOp3
 70
     1
102
RTVSPropertyOp4
 70
     1
102
RTVSPropertyOp5
 70
     1
102
RTVSPropertyOp6
 70
     1
102
RTVSPropertyOp7
 70
     1
102
RTVSPropertyOp8
 70
     1
102
RTVSPropertyOp9
 70
     1
102
RTVSPropertyOp10
 70
     1
102
RTVSPropertyOp11
 70
     1
102
RTVSPropertyOp12
 70
     1
102
RTVSPropertyOp13
 70
     1
102
RTVSPropertyOp14
 70
     1
102
RTVSPropertyOp15
 70
     1
102
RTVSPropertyOp16
 70
     1
102
RTVSPropertyOp17
 70
     1
102
RTVSPropertyOp18
 70
     1
102
RTVSPropertyOp19
 70
     1
102
RTVSPropertyOp20
 70
     1
102
RTVSPropertyOp21
 70
     1
102
RTVSPropertyOp22
 70
     1
102
RTVSPropertyOp23
 70
     1
102
RTVSPropertyOp24
 70
     1
102
RTVSPropertyOp25
 70
     1
102
RTVSPropertyOp26
 70
     1
102
RTVSPropertyOp27
 70
     1
102
RTVSPropertyOp28
 70
     1
102
RTVSPropertyOp29
 70
     1
102
RTVSPropertyOp30
 70
     1
102
RTVSPropertyOp31
 70
     1
102
RTVSPropertyOp32
 70
     1
  0
XRECORD
  5
456
102
{ACAD_REACTORS
330
455
102
}
330
455
100
AcDbXrecord
280
     1
102
RTVSPropertyOp0
 70
     1
102
RTVSPropertyOp1
 70
     1
102
RTVSPropertyOp2
 70
     1
102
RTVSPropertyOp3
 70
     1
102
RTVSPropertyOp4
 70
     1
102
RTVSPropertyOp5
 70
     1
102
RTVSPropertyOp6
 70
     1
102
RTVSPropertyOp7
 70
     1
102
RTVSPropertyOp8
 70
     1
102
RTVSPropertyOp9
 70
     1
102
RTVSPropertyOp10
 70
     1
102
RTVSPropertyOp11
 70
     1
102
RTVSPropertyOp12
 70
     1
102
RTVSPropertyOp13
 70
     1
102
RTVSPropertyOp14
 70
     1
102
RTVSPropertyOp15
 70
     1
102
RTVSPropertyOp16
 70
     1
102
RTVSPropertyOp17
 70
     1
102
RTVSPropertyOp18
 70
     1
102
RTVSPropertyOp19
 70
     1
102
RTVSPropertyOp20
 70
     1
102
RTVSPropertyOp21
 70
     1
102
RTVSPropertyOp22
 70
     1
102
RTVSPropertyOp23
 70
     1
102
RTVSPropertyOp24
 70
     1
102
RTVSPropertyOp25
 70
     1
102
RTVSPropertyOp26
 70
     1
102
RTVSPropertyOp27
 70
     1
102
RTVSPropertyOp28
 70
     1
102
RTVSPropertyOp29
 70
     1
102
RTVSPropertyOp30
 70
     1
102
RTVSPropertyOp31
 70
     1
102
RTVSPropertyOp32
 70
     1
  0
XRECORD
  5
458
102
{ACAD_REACTORS
330
457
102
}
330
457
100
AcDbXrecord
280
     1
102
RTVSPropertyOp0
 70
     1
102
RTVSPropertyOp1
 70
     1
102
RTVSPropertyOp2
 70
     1
102
RTVSPropertyOp3
 70
     1
102
RTVSPropertyOp4
 70
     1
102
RTVSPropertyOp5
 70
     1
102
RTVSPropertyOp6
 70
     1
102
RTVSPropertyOp7
 70
     1
102
RTVSPropertyOp8
 70
     1
102
RTVSPropertyOp9
 70
     1
102
RTVSPropertyOp10
 70
     1
102
RTVSPropertyOp11
 70
     1
102
RTVSPropertyOp12
 70
     1
102
RTVSPropertyOp13
 70
     1
102
RTVSPropertyOp14
 70
     1
102
RTVSPropertyOp15
 70
     1
102
RTVSPropertyOp16
 70
     1
102
RTVSPropertyOp17
 70
     1
102
RTVSPropertyOp18
 70
     1
102
RTVSPropertyOp19
 70
     1
102
RTVSPropertyOp20
 70
     1
102
RTVSPropertyOp21
 70
     1
102
RTVSPropertyOp22
 70
     1
102
RTVSPropertyOp23
 70
     1
102
RTVSPropertyOp24
 70
     1
102
RTVSPropertyOp25
 70
     1
102
RTVSPropertyOp26
 70
     1
102
RTVSPropertyOp27
 70
     1
102
RTVSPropertyOp28
 70
     1
102
RTVSPropertyOp29
 70
     1
102
RTVSPropertyOp30
 70
     1
102
RTVSPropertyOp31
 70
     1
102
RTVSPropertyOp32
 70
     1
  0
XRECORD
  5
460
102
{ACAD_REACTORS
330
45F
102
}
330
45F
100
AcDbXrecord
280
     1
102
RTVSPropertyOp0
 70
     1
102
RTVSPropertyOp1
 70
     1
102
RTVSPropertyOp2
 70
     1
102
RTVSPropertyOp3
 70
     1
102
RTVSPropertyOp4
 70
     1
102
RTVSPropertyOp5
 70
     1
102
RTVSPropertyOp6
 70
     1
102
RTVSPropertyOp7
 70
     1
102
RTVSPropertyOp8
 70
     1
102
RTVSPropertyOp9
 70
     1
102
RTVSPropertyOp10
 70
     1
102
RTVSPropertyOp11
 70
     1
102
RTVSPropertyOp12
 70
     1
102
RTVSPropertyOp13
 70
     1
102
RTVSPropertyOp14
 70
     1
102
RTVSPropertyOp15
 70
     1
102
RTVSPropertyOp16
 70
     1
102
RTVSPropertyOp17
 70
     1
102
RTVSPropertyOp18
 70
     1
102
RTVSPropertyOp19
 70
     1
102
RTVSPropertyOp20
 70
     1
102
RTVSPropertyOp21
 70
     1
102
RTVSPropertyOp22
 70
     1
102
RTVSPropertyOp23
 70
     1
102
RTVSPropertyOp24
 70
     1
102
RTVSPropertyOp25
 70
     1
102
RTVSPropertyOp26
 70
     1
102
RTVSPropertyOp27
 70
     1
102
RTVSPropertyOp28
 70
     1
102
RTVSPropertyOp29
 70
     1
102
RTVSPropertyOp30
 70
     1
102
RTVSPropertyOp31
 70
     1
102
RTVSPropertyOp32
 70
     1
  0
XRECORD
  5
444
102
{ACAD_REACTORS
330
443
102
}
330
443
100
AcDbXrecord
280
     1
102
RTVSPropertyOp0
 70
     1
102
RTVSPropertyOp1
 70
     1
102
RTVSPropertyOp2
 70
     1
102
RTVSPropertyOp3
 70
     1
102
RTVSPropertyOp4
 70
     1
102
RTVSPropertyOp5
 70
     1
102
RTVSPropertyOp6
 70
     1
102
RTVSPropertyOp7
 70
     1
102
RTVSPropertyOp8
 70
     1
102
RTVSPropertyOp9
 70
     1
102
RTVSPropertyOp10
 70
     1
102
RTVSPropertyOp11
 70
     1
102
RTVSPropertyOp12
 70
     1
102
RTVSPropertyOp13
 70
     1
102
RTVSPropertyOp14
 70
     1
102
RTVSPropertyOp15
 70
     1
102
RTVSPropertyOp16
 70
     1
102
RTVSPropertyOp17
 70
     1
102
RTVSPropertyOp18
 70
     1
102
RTVSPropertyOp19
 70
     1
102
RTVSPropertyOp20
 70
     1
102
RTVSPropertyOp21
 70
     1
102
RTVSPropertyOp22
 70
     1
102
RTVSPropertyOp23
 70
     1
102
RTVSPropertyOp24
 70
     1
102
RTVSPropertyOp25
 70
     1
102
RTVSPropertyOp26
 70
     1
102
RTVSPropertyOp27
 70
     1
102
RTVSPropertyOp28
 70
     1
102
RTVSPropertyOp29
 70
     1
102
RTVSPropertyOp30
 70
     1
102
RTVSPropertyOp31
 70
     1
102
RTVSPropertyOp32
 70
     1
  0
XRECORD
  5
446
102
{ACAD_REACTORS
330
445
102
}
330
445
100
AcDbXrecord
280
     1
102
RTVSPropertyOp0
 70
     1
102
RTVSPropertyOp1
 70
     1
102
RTVSPropertyOp2
 70
     1
102
RTVSPropertyOp3
 70
     1
102
RTVSPropertyOp4
 70
     1
102
RTVSPropertyOp5
 70
     1
102
RTVSPropertyOp6
 70
     1
102
RTVSPropertyOp7
 70
     1
102
RTVSPropertyOp8
 70
     1
102
RTVSPropertyOp9
 70
     1
102
RTVSPropertyOp10
 70
     1
102
RTVSPropertyOp11
 70
     1
102
RTVSPropertyOp12
 70
     1
102
RTVSPropertyOp13
 70
     1
102
RTVSPropertyOp14
 70
     1
102
RTVSPropertyOp15
 70
     1
102
RTVSPropertyOp16
 70
     1
102
RTVSPropertyOp17
 70
     1
102
RTVSPropertyOp18
 70
     1
102
RTVSPropertyOp19
 70
     1
102
RTVSPropertyOp20
 70
     1
102
RTVSPropertyOp21
 70
     1
102
RTVSPropertyOp22
 70
     1
102
RTVSPropertyOp23
 70
     1
102
RTVSPropertyOp24
 70
     1
102
RTVSPropertyOp25
 70
     1
102
RTVSPropertyOp26
 70
     1
102
RTVSPropertyOp27
 70
     1
102
RTVSPropertyOp28
 70
     1
102
RTVSPropertyOp29
 70
     1
102
RTVSPropertyOp30
 70
     1
102
RTVSPropertyOp31
 70
     1
102
RTVSPropertyOp32
 70
     1
  0
XRECORD
  5
448
102
{ACAD_REACTORS
330
447
102
}
330
447
100
AcDbXrecord
280
     1
102
RTVSPropertyOp0
 70
     1
102
RTVSPropertyOp1
 70
     1
102
RTVSPropertyOp2
 70
     1
102
RTVSPropertyOp3
 70
     1
102
RTVSPropertyOp4
 70
     1
102
RTVSPropertyOp5
 70
     1
102
RTVSPropertyOp6
 70
     1
102
RTVSPropertyOp7
 70
     1
102
RTVSPropertyOp8
 70
     1
102
RTVSPropertyOp9
 70
     1
102
RTVSPropertyOp10
 70
     1
102
RTVSPropertyOp11
 70
     1
102
RTVSPropertyOp12
 70
     1
102
RTVSPropertyOp13
 70
     1
102
RTVSPropertyOp14
 70
     1
102
RTVSPropertyOp15
 70
     1
102
RTVSPropertyOp16
 70
     1
102
RTVSPropertyOp17
 70
     1
102
RTVSPropertyOp18
 70
     1
102
RTVSPropertyOp19
 70
     1
102
RTVSPropertyOp20
 70
     1
102
RTVSPropertyOp21
 70
     1
102
RTVSPropertyOp22
 70
     1
102
RTVSPropertyOp23
 70
     1
102
RTVSPropertyOp24
 70
     1
102
RTVSPropertyOp25
 70
     1
102
RTVSPropertyOp26
 70
     1
102
RTVSPropertyOp27
 70
     1
102
RTVSPropertyOp28
 70
     1
102
RTVSPropertyOp29
 70
     1
102
RTVSPropertyOp30
 70
     1
102
RTVSPropertyOp31
 70
     1
102
RTVSPropertyOp32
 70
     1
  0
XRECORD
  5
44A
102
{ACAD_REACTORS
330
449
102
}
330
449
100
AcDbXrecord
280
     1
102
RTVSPropertyOp0
 70
     1
102
RTVSPropertyOp1
 70
     1
102
RTVSPropertyOp2
 70
     1
102
RTVSPropertyOp3
 70
     1
102
RTVSPropertyOp4
 70
     1
102
RTVSPropertyOp5
 70
     1
102
RTVSPropertyOp6
 70
     1
102
RTVSPropertyOp7
 70
     1
102
RTVSPropertyOp8
 70
     1
102
RTVSPropertyOp9
 70
     1
102
RTVSPropertyOp10
 70
     1
102
RTVSPropertyOp11
 70
     1
102
RTVSPropertyOp12
 70
     1
102
RTVSPropertyOp13
 70
     1
102
RTVSPropertyOp14
 70
     1
102
RTVSPropertyOp15
 70
     1
102
RTVSPropertyOp16
 70
     1
102
RTVSPropertyOp17
 70
     1
102
RTVSPropertyOp18
 70
     1
102
RTVSPropertyOp19
 70
     1
102
RTVSPropertyOp20
 70
     1
102
RTVSPropertyOp21
 70
     1
102
RTVSPropertyOp22
 70
     1
102
RTVSPropertyOp23
 70
     1
102
RTVSPropertyOp24
 70
     1
102
RTVSPropertyOp25
 70
     1
102
RTVSPropertyOp26
 70
     1
102
RTVSPropertyOp27
 70
     1
102
RTVSPropertyOp28
 70
     1
102
RTVSPropertyOp29
 70
     1
102
RTVSPropertyOp30
 70
     1
102
RTVSPropertyOp31
 70
     1
102
RTVSPropertyOp32
 70
     1
  0
XRECORD
  5
45E
102
{ACAD_REACTORS
330
45D
102
}
330
45D
100
AcDbXrecord
280
     1
102
RTVSPropertyOp0
 70
     1
102
RTVSPropertyOp1
 70
     1
102
RTVSPropertyOp2
 70
     1
102
RTVSPropertyOp3
 70
     1
102
RTVSPropertyOp4
 70
     1
102
RTVSPropertyOp5
 70
     1
102
RTVSPropertyOp6
 70
     1
102
RTVSPropertyOp7
 70
     1
102
RTVSPropertyOp8
 70
     1
102
RTVSPropertyOp9
 70
     1
102
RTVSPropertyOp10
 70
     1
102
RTVSPropertyOp11
 70
     1
102
RTVSPropertyOp12
 70
     1
102
RTVSPropertyOp13
 70
     1
102
RTVSPropertyOp14
 70
     1
102
RTVSPropertyOp15
 70
     1
102
RTVSPropertyOp16
 70
     1
102
RTVSPropertyOp17
 70
     1
102
RTVSPropertyOp18
 70
     1
102
RTVSPropertyOp19
 70
     1
102
RTVSPropertyOp20
 70
     1
102
RTVSPropertyOp21
 70
     1
102
RTVSPropertyOp22
 70
     1
102
RTVSPropertyOp23
 70
     1
102
RTVSPropertyOp24
 70
     1
102
RTVSPropertyOp25
 70
     1
102
RTVSPropertyOp26
 70
     1
102
RTVSPropertyOp27
 70
     1
102
RTVSPropertyOp28
 70
     1
102
RTVSPropertyOp29
 70
     1
102
RTVSPropertyOp30
 70
     1
102
RTVSPropertyOp31
 70
     1
102
RTVSPropertyOp32
 70
     1
  0
XRECORD
  5
454
102
{ACAD_REACTORS
330
453
102
}
330
453
100
AcDbXrecord
280
     1
102
RTVSPropertyOp0
 70
     1
102
RTVSPropertyOp1
 70
     1
102
RTVSPropertyOp2
 70
     1
102
RTVSPropertyOp3
 70
     1
102
RTVSPropertyOp4
 70
     1
102
RTVSPropertyOp5
 70
     1
102
RTVSPropertyOp6
 70
     1
102
RTVSPropertyOp7
 70
     1
102
RTVSPropertyOp8
 70
     1
102
RTVSPropertyOp9
 70
     1
102
RTVSPropertyOp10
 70
     1
102
RTVSPropertyOp11
 70
     1
102
RTVSPropertyOp12
 70
     1
102
RTVSPropertyOp13
 70
     1
102
RTVSPropertyOp14
 70
     1
102
RTVSPropertyOp15
 70
     1
102
RTVSPropertyOp16
 70
     1
102
RTVSPropertyOp17
 70
     1
102
RTVSPropertyOp18
 70
     1
102
RTVSPropertyOp19
 70
     1
102
RTVSPropertyOp20
 70
     1
102
RTVSPropertyOp21
 70
     1
102
RTVSPropertyOp22
 70
     1
102
RTVSPropertyOp23
 70
     1
102
RTVSPropertyOp24
 70
     1
102
RTVSPropertyOp25
 70
     1
102
RTVSPropertyOp26
 70
     1
102
RTVSPropertyOp27
 70
     1
102
RTVSPropertyOp28
 70
     1
102
RTVSPropertyOp29
 70
     1
102
RTVSPropertyOp30
 70
     1
102
RTVSPropertyOp31
 70
     1
102
RTVSPropertyOp32
 70
     1
  0
XRECORD
  5
45C
102
{ACAD_REACTORS
330
45B
102
}
330
45B
100
AcDbXrecord
280
     1
102
RTVSPropertyOp0
 70
     1
102
RTVSPropertyOp1
 70
     1
102
RTVSPropertyOp2
 70
     1
102
RTVSPropertyOp3
 70
     1
102
RTVSPropertyOp4
 70
     1
102
RTVSPropertyOp5
 70
     1
102
RTVSPropertyOp6
 70
     1
102
RTVSPropertyOp7
 70
     1
102
RTVSPropertyOp8
 70
     1
102
RTVSPropertyOp9
 70
     1
102
RTVSPropertyOp10
 70
     1
102
RTVSPropertyOp11
 70
     1
102
RTVSPropertyOp12
 70
     1
102
RTVSPropertyOp13
 70
     1
102
RTVSPropertyOp14
 70
     1
102
RTVSPropertyOp15
 70
     1
102
RTVSPropertyOp16
 70
     1
102
RTVSPropertyOp17
 70
     1
102
RTVSPropertyOp18
 70
     1
102
RTVSPropertyOp19
 70
     1
102
RTVSPropertyOp20
 70
     1
102
RTVSPropertyOp21
 70
     1
102
RTVSPropertyOp22
 70
     1
102
RTVSPropertyOp23
 70
     1
102
RTVSPropertyOp24
 70
     1
102
RTVSPropertyOp25
 70
     1
102
RTVSPropertyOp26
 70
     1
102
RTVSPropertyOp27
 70
     1
102
RTVSPropertyOp28
 70
     1
102
RTVSPropertyOp29
 70
     1
102
RTVSPropertyOp30
 70
     1
102
RTVSPropertyOp31
 70
     1
102
RTVSPropertyOp32
 70
     1
  0
ENDSEC
  0
EOF
